Kalashnikov – AK.47.Kalashnik Full Torrent Magnet Download

Download Torrent Kalashnikov – AK.47.Kalashnik Movie Full in HD Result. Movie Kalashnikov – AK.47.Kalashnik Torrent Download full. Movie Kalashnikov – AK.47.Kalashnik torrent Magnet Download Full. Kalashnikov – AK.47.Kalashnik Full Movie Torrent Download And Magnet Download For your PC And Mobiles. Latest Movie Kalashnikov – AK.47.Kalashnik Download Link In Bottom.

Torrent And Magnet Links Below


AK-47 – Kalashnikov


Titolo originale: Kalashnikov

Genere: Guerra

Anno: 2020

Regia: Konstantin Buslov

Attori: Yuriy Borisov, Olga Lerman, Artur Smolyaninov, Sergey Gazarov, Vitaliy Khaev, Anatoliy Lobotskiy, Valeriy Barinov, Valeriy Afanasev, Igor Khripunov, Aleksey Vertkov, Maksim Bityukov, Evgeniy Antropov, Yevgeniy Kartashov, Amadu Mamadakov, Yelena Morozova, Elena Nesterova, Oleg Zhukov

Paese: Russia

Durata: 110 Min


Kalashnikov, giovane comandante di carro armato, rimane gravemente ferito in battaglia nel 1941. L’incidente ha profonde conseguenze che non gli permettono di ritornare al fronte. Mentre si trova in riabilitazione, inizia a creare su un quaderno i primi schizzi di quella che diventerà una delle armi più leggendarie del mondo.




General

Unique ID : 209459752358967357716846783965467370065 (0x9D947B1DA6F81A3B812016D0EEFDE251)

Complete name : AK.47.Kalashnikov.2020.iTA.RUS.AC3.SUB.iTA.RUS.ENG.BluRay.1080p.x264.jeddak-MIRCrew.mkv

Format : Matroska

Format version : Version 2

File size : 2.39 GiB

Duration : 1 h 44 min

Overall bit rate : 3 277 kb/s

Movie name : AK.47.Kalashnikov.2020.iTA.RUS.AC3.SUB.iTA.RUS.ENG.BluRay.1080p.x264.jeddak-MIRCrew

Encoded date : UTC 2021-03-13 15:45:53

Writing application : mkvmerge v5.6.0 (‘Kenya Kane’) built on May 27 2012 16:44:04

Writing library : libebml v1.2.3 + libmatroska v1.3.0 / Lavf58.29.100

Video

ID : 1

Format : AVC

Format/Info : Advanced Video Codec

Format profile : [email protected]
Format settings : CABAC / 4 Ref Frames

Format settings, CABAC : Yes

Format settings, Reference : 4 frames

Codec ID : V_MPEG4/ISO/AVC

Duration : 1 h 44 min

Bit rate : 2 400 kb/s

Width : 1 920 pixels

Height : 856 pixels

Display aspect ratio : 2.25:1

Frame rate mode : Constant

Frame rate : 24.000 FPS

Color space : YUV

Chroma subsampling : 4:2:0

Bit depth : 8 bits

Scan type : Progressive

Bits/(Pixel*Frame) : 0.061

Stream size : 1.69 GiB (71%)

Title : …::: jeddak MIRCrew :::…

Writing library : x264 core 148

Encoding settings : cabac=1 / ref=3 / deblock=1:-1:-1 / analyse=0x3:0x113 / me=hex / subme=7 / psy=1 / psy_rd=1.00:0.15 / mixed_ref=1 / me_range=16 / chroma_me=1 / trellis=1 / 8x8dct=1 / cqm=0 / deadzone=21,11 / fast_pskip=1 / chroma_qp_offset=-3 / threads=6 / lookahead_threads=1 / sliced_threads=0 / nr=0 / decimate=1 / interlaced=0 / bluray_compat=0 / constrained_intra=0 / bframes=3 / b_pyramid=2 / b_adapt=1 / b_bias=0 / direct=1 / weightb=1 / open_gop=0 / weightp=2 / keyint=240 / keyint_min=24 / scenecut=40 / intra_refresh=0 / rc_lookahead=40 / rc=abr / mbtree=1 / bitrate=2400 / ratetol=1.0 / qcomp=0.60 / qpmin=0 / qpmax=69 / qpstep=4 / vbv_maxrate=62500 / vbv_bufsize=78125 / nal_hrd=none / filler=0 / ip_ratio=1.40 / aq=1:1.00

Default : Yes

Forced : No

Color range : Limited

Color primaries : BT.709

Transfer characteristics : BT.709

Matrix coefficients : BT.709

Audio #1

ID : 2

Format : AC-3

Format/Info : Audio Coding 3

Commercial name : Dolby Digital

Codec ID : A_AC3

Duration : 1 h 44 min

Bit rate mode : Constant

Bit rate : 448 kb/s

Channel(s) : 6 channels

Channel layout : L R C LFE Ls Rs

Sampling rate : 48.0 kHz

Frame rate : 31.250 FPS (1536 SPF)

Compression mode : Lossy

Delay relative to video : 680 ms

Stream size : 335 MiB (14%)

Title : iTA AC3 5.1

Language : Italian

Service kind : Complete Main

Default : Yes

Forced : No

Duration_Source : General_Duration

Audio #2

ID : 3

Format : AC-3

Format/Info : Audio Coding 3

Commercial name : Dolby Digital

Codec ID : A_AC3

Duration : 1 h 44 min

Bit rate mode : Constant

Bit rate : 448 kb/s

Channel(s) : 6 channels

Channel layout : L R C LFE Ls Rs

Sampling rate : 48.0 kHz

Frame rate : 31.250 FPS (1536 SPF)

Compression mode : Lossy

Delay relative to video : -5 ms

Stream size : 335 MiB (14%)

Title : RUS AC3 5.1

Language : Russian

Service kind : Complete Main

Default : No

Forced : No

Text #1

ID : 4

Format : UTF-8

Codec ID : S_TEXT/UTF8

Codec ID/Info : UTF-8 Plain Text

Title : iTA FORCED

Language : Italian

Default : Yes

Forced : Yes

Text #2

ID : 5

Format : UTF-8

Codec ID : S_TEXT/UTF8

Codec ID/Info : UTF-8 Plain Text

Title : iTA REGULAR

Language : Italian

Default : No

Forced : No

Text #3

ID : 6

Format : ASS

Codec ID : S_TEXT/ASS

Codec ID/Info : Advanced Sub Station Alpha

Duration : 1 h 41 min

Compression mode : Lossless

Title : RUS REGULAR

Language : Russian

Default : No

Forced : No

Text #4

ID : 7

Format : UTF-8

Codec ID : S_TEXT/UTF8

Codec ID/Info : UTF-8 Plain Text

Title : ENG REGULAR

Language : English

Default : No

Forced : No

Menu

00:00:00.000 : :Capitolo 01

00:04:09.458 : :Capitolo 02

00:11:51.042 : :Capitolo 03

00:19:54.083 : :Capitolo 04

00:27:33.000 : :Capitolo 05

00:33:59.792 : :Capitolo 06

00:38:04.917 : :Capitolo 07

00:45:04.625 : :Capitolo 08

00:55:43.125 : :Capitolo 09

01:05:46.542 : :Capitolo 10

01:14:01.792 : :Capitolo 11

01:16:34.917 : :Capitolo 12

01:22:24.250 : :Capitolo 13

01:28:49.042 : :Capitolo 14

01:36:09.375 : :Capitolo 15

01:41:22.000 : :Capitolo 16

Kalashnikov – AK.47.KalashnikDownload Torrent Magnet

#Kalashnikov #AK47Kalashnik