Kahi Kshan Premache 2019 Mara Full Torrent Magnet Download

Download Torrent Kahi Kshan Premache 2019 Mara Movie Full in HD Result. Movie Kahi Kshan Premache 2019 Mara Torrent Download full. Movie Kahi Kshan Premache 2019 Mara torrent Magnet Download Full. Kahi Kshan Premache 2019 Mara Full Movie Torrent Download And Magnet Download For your PC And Mobiles. Latest Movie Kahi Kshan Premache 2019 Mara Download Link In Bottom.

Torrent And Magnet Links Below









General

Complete name : Kahi Kshan Premache 2019 Marathi 1080p Web-DL x264 AAC [TMB].mkv

Format : Matroska

Format version : Version 4

File size : 3.01 GiB

Duration : 1 h 43 min

Overall bit rate : 4 142 kb/s

Video

Format : AVC

Format/Info : Advanced Video Codec

Format profile : [email protected]
Format settings : CABAC / 4 Ref Frames

Format settings, CABAC : Yes

Format settings, Reference : 4 frames

Codec ID : V_MPEG4/ISO/AVC

Duration : 1 h 43 min

Bit rate : 4 076 kb/s

Width : 2 692 pixels

Height : 1 080 pixels

Display aspect ratio : 2.494

Frame rate mode : Constant

Frame rate : 25.000 FPS

Color space : YUV

Chroma subsampling : 4:2:0

Bit depth : 8 bits

Scan type : Progressive

Bits/(Pixel*Frame) : 0.056

Stream size : 2.96 GiB (98%)

Audio

Format : AAC LC

Format/Info : Advanced Audio Codec Low Complexity

Codec ID : A_AAC-2

Duration : 1 h 43 min

Bit rate : 63.6 kb/s

Channel(s) : 2 channels

Channel layout : L R

Sampling rate : 48.0 kHz

Frame rate : 46.875 FPS (1024 SPF)

Compression mode : Lossy

Stream size : 47.3 MiB (2%)

Uploaded & Shared by TMB

Seeding 24×7… Extreme Seeding…

Enjoy!

Kahi Kshan Premache 2019 MaraDownload Torrent Magnet

#Kahi #Kshan #Premache #Mara