Kadosh (1999) SD H264 AAC Ste Full Torrent Magnet Download

Download Torrent Kadosh (1999) SD H264 AAC Ste Movie Full in HD Result. Movie Kadosh (1999) SD H264 AAC Ste Torrent Download full. Movie Kadosh (1999) SD H264 AAC Ste torrent Magnet Download Full. Kadosh (1999) SD H264 AAC Ste Full Movie Torrent Download And Magnet Download For your PC And Mobiles. Latest Movie Kadosh (1999) SD H264 AAC Ste Download Link In Bottom.

Torrent And Magnet Links Below

Kadosh (1999) SD H264 AAC Stereo ITA

Scheda

Titolo originale: Kadosh

Paese di produzione: Israele, Francia

Anno: 1999

Genere: Drammatico

Regia: Amos Gitai

Durata: ca. 99 minuti

Interpreti

Yaël Abecassis – Yoram Hattab – Meital Barda – Uri Ran Klauzner

Trama

Una giovane donna, Malka, è costretta dalle convenzioni a sposare un uomo che non ama, mentre Rivka che ama, riamata, suo marito, su istigazione del rabbino viene ripudiata perchè ritenuta, ingiustamente, sterile. Tutto ciò non avviene nel medioevo ma ai giorni nostri, a Mea Shearim, il quartiere ultraortodosso di Gerusalemme.

Screenshot





Dati Tecnici

General

Complete name : Kadosh – (1999) – [H264 AAC Stereo ITA].mp4

Format : MPEG-4

Codec ID : M4V (M4V /M4A /mp42/isom)

File size : 1.28 GiB

Duration : 1 h 51 min

Overall bit rate mode : Variable

Overall bit rate : 1 643 kb/s

Movie name : Kadosh

Performer : Amos Gitai

Director : Amos Gitai

Actor : Yaël Abecassis / Yoram Hattab / Meital Barda / Uri Ran Klauzner

Screenplay by : Amos Gitai / Eliette Abecassis

Production studio : MP Productions, Agav Hafakot

Genre : Dramma, Romance

ContentType : Short Film

Description : Una giovane donna, Malka, è costretta dalle convenzioni a sposare un uomo che non ama, mentre Rivka che ama, riamata, suo marito, su istigazione del rabbino viene ripudiata perchè ritenuta, ingiustamente, sterile. Tutto ciò non avviene nel medioevo ma…

Recorded date : UTC 1999-01-01 12:00:00

Encoded date : UTC 2021-06-05 18:48:06

Tagged date : UTC 2021-06-05 18:49:25

Cover : Yes

LongDescription : Una giovane donna, Malka, è costretta dalle convenzioni a sposare un uomo che non ama, mentre Rivka che ama, riamata, suo marito, su istigazione del rabbino viene ripudiata perchè ritenuta, ingiustamente, sterile. Tutto ciò non avviene nel medioevo ma ai giorni nostri, a Mea Shearim, il quartiere ultraortodosso di Gerusalemme.

Video #1

ID : 1

Format : AVC

Format/Info : Advanced Video Codec

Format profile : [email protected]
Format settings : CABAC / 5 Ref Frames

Format settings, CABAC : Yes

Format settings, Reference frames : 5 frames

Codec ID : avc1

Codec ID/Info : Advanced Video Coding

Duration : 1 h 51 min

Bit rate : 1 440 kb/s

Width : 720 pixels

Height : 404 pixels

Display aspect ratio : 16:9

Frame rate mode : Constant

Frame rate : 25.000 FPS

Color space : YUV

Chroma subsampling : 4:2:0

Bit depth : 8 bits

Scan type : Progressive

Bits/(Pixel*Frame) : 0.198

Stream size : 1.12 GiB (88%)

Writing library : x264 core 157

Encoding settings : cabac=1 / ref=5 / deblock=1:-3:-3 / analyse=0x3:0x113 / me=umh / subme=10 / psy=1 / psy_rd=1.00:0.25 / mixed_ref=1 / me_range=16 / chroma_me=1 / trellis=2 / 8x8dct=1 / cqm=0 / deadzone=6,6 / fast_pskip=1 / chroma_qp_offset=-4 / threads=6 / lookahead_threads=1 / sliced_threads=0 / nr=0 / decimate=0 / interlaced=0 / bluray_compat=0 / constrained_intra=0 / bframes=3 / b_pyramid=2 / b_adapt=2 / b_bias=0 / direct=3 / weightb=1 / open_gop=0 / weightp=2 / keyint=24 / keyint_min=2 / scenecut=40 / intra_refresh=0 / rc_lookahead=25 / rc=2pass / mbtree=1 / bitrate=1440 / ratetol=1.0 / qcomp=0.80 / qpmin=0 / qpmax=69 / qpstep=4 / cplxblur=20.0 / qblur=0.5 / vbv_maxrate=23040 / vbv_bufsize=23040 / nal_hrd=none / filler=0 / ip_ratio=1.10 / aq=1:0.50

Encoded date : UTC 2021-06-05 18:48:06

Tagged date : UTC 2021-06-05 18:49:24

Color range : Limited

Color primaries : BT.601 PAL

Transfer characteristics : BT.470 System B/G

Matrix coefficients : BT.470 System B/G

Menus : 3,4

Codec configuration box : avcC

Video #2

ID : 4

Format : JPEG

Codec ID : jpeg

Duration : 1 h 51 min

Bit rate mode : Variable

Bit rate : 350 b/s

Width : 640 pixels

Height : 359 pixels

Display aspect ratio : 16:9

Frame rate mode : Variable

Frame rate : 0.001 FPS

Minimum frame rate : 0.001 FPS

Maximum frame rate : 0.005 FPS

Color space : YUV

Chroma subsampling : 4:2:0

Bit depth : 8 bits

Compression mode : Lossy

Bits/(Pixel*Frame) : 1.523

Stream size : 427 KiB (0%)

Default : No

Encoded date : UTC 2021-06-05 18:49:25

Tagged date : UTC 2021-06-05 18:49:25

Menu For : 1

ColorSpace_ICC : RGB

Audio

ID : 2

Format : AAC LC

Format/Info : Advanced Audio Codec Low Complexity

Codec ID : mp4a-40-2

Duration : 1 h 51 min

Bit rate mode : Variable

Bit rate : 198 kb/s

Maximum bit rate : 242 kb/s

Channel(s) : 2 channels

Channel layout : L R

Sampling rate : 44.1 kHz

Frame rate : 43.066 FPS (1024 SPF)

Compression mode : Lossy

Stream size : 158 MiB (12%)

Language : Italian

Default : Yes

Alternate group : 1

Encoded date : UTC 2021-06-05 18:48:06

Tagged date : UTC 2021-06-05 18:48:30

tagc : public.main-program-content

Menu

ID : 3

Codec ID : text

Duration : 1 h 51 min

Language : Italian

Encoded date : UTC 2021-06-05 18:49:24

Tagged date : UTC 2021-06-05 18:49:24

Bit rate mode : CBR

Menu For : 1

00:00:00.000 : Capitolo 01

00:09:36.760 : Capitolo 02

00:13:14.920 : Capitolo 03

00:16:38.160 : Capitolo 04

00:28:08.480 : Capitolo 05

00:42:09.200 : Capitolo 06

00:48:30.080 : Capitolo 07

01:02:07.400 : Capitolo 08

01:09:59.480 : Capitolo 09

01:27:56.600 : Capitolo 10

Bit rate mode : Constant

Kadosh (1999) SD H264 AAC SteDownload Torrent Magnet

#Kadosh #H264 #AAC #Ste