Justice League – The Snyder C Full Torrent Magnet Download

Download Torrent Justice League – The Snyder C Movie Full in HD Result. Movie Justice League – The Snyder C Torrent Download full. Movie Justice League – The Snyder C torrent Magnet Download Full. Justice League – The Snyder C Full Movie Torrent Download And Magnet Download For your PC And Mobiles. Latest Movie Justice League – The Snyder C Download Link In Bottom.

Torrent And Magnet Links Below

Justice League – The Snyder Cut (2021) 1080p UHD UpScaled [16:9] Q17 10Bit HMAX Web-Rip x265 HEVC English DD 5.1 ESub ~ PeruGuy

Quote:

General

Unique ID                                : 219373600359099504044625656934722221268 (0xA509D18F5FBB05086431B6B07C90B4D4)

Complete name                            : C:Userssexy_babaDownloadsJustice League – The Snyder Cut (2021) 1080p UHD Q17 10Bit HMAX Web-Rip x265 HEVC English DD 5.1 ESub ~ PeruGuy.mkv

Format                                   : Matroska

Format version                           : Version 4

File size                                : 9.96 GiB

Duration                                 : 4 h 2 min

Overall bit rate                         : 5 887 kb/s

Movie name                               : Justice League – The Snyder Cut (2021) 1080p UHD Q17 HMAX Web-Rip 10bit x265 HEVC [English DD 5.1 640Kbps] ESub ~ PeruGuy

Encoded date                             : UTC 2021-03-19 03:29:33

Writing application                      : mkvmerge v55.0.0 (‘Waiting For Space’) 64-bit

Writing library                          : libebml v1.4.2 + libmatroska v1.6.4

Cover                                    : Yes

Attachments                              : small_cover.jpg / small_cover_land.jpg / cover.jpg / cover_land.jpg

Video

ID                                       : 1

Format                                   : HEVC

Format/Info                              : High Efficiency Video Coding

Format profile                           : Main [email protected]@Main

Codec ID                                 : V_MPEGH/ISO/HEVC

Duration                                 : 4 h 2 min

Bit rate                                 : 5 245 kb/s

Width                                    : 1 850 pixels

Height                                   : 1 080 pixels

Display aspect ratio                     : 1.713

Frame rate mode                          : Constant

Frame rate                               : 23.976 (24000/1001) FPS

Color space                              : YUV

Chroma subsampling                       : 4:2:0

Bit depth                                : 10 bits

Bits/(Pixel*Frame)                       : 0.109

Stream size                              : 8.87 GiB (89%)

Title                                    : Encoded By PeruGuy

Writing library                          : x265 3.4+22-ga988fbbac:[Windows][GCC 10.2.0][64 bit] 10bit

Encoding settings                        : cpuid=1111039 / frame-threads=5 / numa-pools=32 / wpp / no-pmode / no-pme / no-psnr / no-ssim / log-level=2 / input-csp=1 / input-res=1850×1080 / interlace=0 / total-frames=348325 / level-idc=0 / high-tier=1 / uhd-bd=0 / ref=4 / no-allow-non-conformance / no-repeat-headers / annexb / no-aud / no-hrd / info / hash=0 / no-temporal-layers / open-gop / min-keyint=24 / keyint=240 / gop-lookahead=0 / bframes=4 / b-adapt=2 / b-pyramid / bframe-bias=0 / rc-lookahead=25 / lookahead-slices=4 / scenecut=40 / hist-scenecut=0 / radl=0 / no-splice / no-intra-refresh / ctu=32 / min-cu-size=8 / rect / no-amp / max-tu-size=32 / tu-inter-depth=1 / tu-intra-depth=1 / limit-tu=0 / rdoq-level=2 / dynamic-rd=0.00 / no-ssim-rd / signhide / no-tskip / nr-intra=0 / nr-inter=0 / no-constrained-intra / strong-intra-smoothing / max-merge=3 / limit-refs=3 / limit-modes / me=3 / subme=3 / merange=25 / temporal-mvp / no-frame-dup / no-hme / weightp / no-weightb / no-analyze-src-pics / deblock=0:0 / sao / no-sao-non-deblock / rd=4 / selective-sao=4 / no-early-skip / rskip / no-fast-intra / no-tskip-fast / no-cu-lossless / no-b-intra / no-splitrd-skip / rdpenalty=0 / psy-rd=0.00 / psy-rdoq=0.00 / no-rd-refine / no-lossless / cbqpoffs=0 / crqpoffs=0 / rc=crf / crf=17.0 / qcomp=0.60 / qpstep=4 / stats-write=0 / stats-read=0 / ipratio=1.40 / pbratio=1.30 / aq-mode=2 / aq-strength=0.00 / cutree / zone-count=0 / no-strict-cbr / qg-size=32 / no-rc-grain / qpmax=69 / qpmin=0 / no-const-vbv / sar=1 / overscan=0 / videoformat=5 / range=0 / colorprim=1 / transfer=1 / colormatrix=1 / chromaloc=0 / display-window=0 / cll=0,0 / min-luma=0 / max-luma=1023 / log2-max-poc-lsb=8 / vui-timing-info / vui-hrd-info / slices=1 / no-opt-qp-pps / no-opt-ref-list-length-pps / no-multi-pass-opt-rps / scenecut-bias=0.05 / hist-threshold=0.03 / no-opt-cu-delta-qp / no-aq-motion / no-hdr10 / no-hdr10-opt / no-dhdr10-opt / no-idr-recovery-sei / analysis-reuse-level=0 / analysis-save-reuse-level=0 / analysis-load-reuse-level=0 / scale-factor=0 / refine-intra=0 / refine-inter=0 / refine-mv=1 / refine-ctu-distortion=0 / no-limit-sao / ctu-info=0 / no-lowpass-dct / refine-analysis-type=0 / copy-pic=1 / max-ausize-factor=1.0 / no-dynamic-refine / no-single-sei / no-hevc-aq / no-svt / no-field / qp-adaptation-range=1.00 / no-scenecut-aware-qpconformance-window-offsets / right=0 / bottom=0 / decoder-max-rate=0

Default                                  : Yes

Forced                                   : No

Color range                              : Limited

Color primaries                          : BT.709

Transfer characteristics                 : BT.709

Matrix coefficients                      : BT.709

Audio

ID                                       : 2

Format                                   : AC-3

Format/Info                              : Audio Coding 3

Commercial name                          : Dolby Digital

Codec ID                                 : A_AC3

Duration                                 : 4 h 2 min

Bit rate mode                            : Constant

Bit rate                                 : 640 kb/s

Channel(s)                               : 6 channels

Channel layout                           : L R C LFE Ls Rs

Sampling rate                            : 48.0 kHz

Frame rate                               : 31.250 FPS (1536 SPF)

Compression mode                         : Lossy

Stream size                              : 1.08 GiB (11%)

Title                                    : English DD 5.1 640Kbps

Language                                 : English

Service kind                             : Complete Main

Default                                  : Yes

Forced                                   : No

Text

ID                                       : 3

Format                                   : UTF-8

Codec ID                                 : S_TEXT/UTF8

Codec ID/Info                            : UTF-8 Plain Text

Duration                                 : 4 h 0 min

Bit rate                                 : 40 b/s

Count of elements                        : 2814

Stream size                              : 70.7 KiB (0%)

Title                                    : English SDH

Language                                 : English

Default                                  : Yes

Forced                                   : No

S C R E E N S H O T S

Quote:

Encoding Source — Justice.League.Snyders.Cut.2021.2160p.HMAX.WEB-DL.x265.10bit.HDR.DDP5.1.Atmos-SWTYBLZ  [31.51 GB]

Justice League – The Snyder CDownload Torrent Magnet

#Justice #League #Snyder