Justice League Snyders Cut.20 Full Torrent Magnet Download

Download Torrent Justice League Snyders Cut.20 Movie Full in HD Result. Movie Justice League Snyders Cut.20 Torrent Download full. Movie Justice League Snyders Cut.20 torrent Magnet Download Full. Justice League Snyders Cut.20 Full Movie Torrent Download And Magnet Download For your PC And Mobiles. Latest Movie Justice League Snyders Cut.20 Download Link In Bottom.

Torrent And Magnet Links Below

Quote:

*************************************************************

******************************Thumbnbil:*********************

******************************Screenshots:********************

screenshot 1

screenshot 2

screenshot 3

screenshot 4

screenshot 5

screenshot 6

screenshot 7

screenshot 8

screenshot 9

screenshot 0

******************************************************

Justice League Snyders Cut.2021.1080p.HDRip X264.LLG.mp4

Format : MPEG-4

Format profile : Base Media

Codec ID : isom (isom/iso2/avc1/mp41)

File size : 4.28 GiB

Duration : 4 h 2 min

Overall bit rate mode : Variable

Overall bit rate : 2 527 kb/s

Video

ID : 1

Format : AVC

Format/Info : Advanced Video Codec

Format profile : [email protected]
Format settings : CABAC / 1 Ref Frames

Format settings, CABAC : Yes

Format settings, Reference frames : 1 frame

Codec ID : avc1

Codec ID/Info : Advanced Video Coding

Duration : 4 h 2 min

Bit rate mode : Variable

Bit rate : 2 392 kb/s

Maximum bit rate : 2 500 kb/s

Width : 1 920 pixels

Height : 1 080 pixels

Display aspect ratio : 16:9

Frame rate mode : Constant

Frame rate : 24.000 FPS

Color space : YUV

Chroma subsampling : 4:2:0

Bit depth : 8 bits

Scan type : Progressive

Bits/(Pixel*Frame) : 0.048

Stream size : 4.05 GiB (95%)

Audio

ID : 2

Format : AAC LC

Codec ID : mp4a-40-2

Duration : 4 h 2 min

Bit rate mode : Constant

Bit rate : 128 kb/s

Channel(s) : 2 channels

Channel layout : L R

Sampling rate : 44.1 kHz

Frame rate : 43.066 FPS (1024 SPF)

Compression mode : Lossy

Stream size : 222 MiB (5%)

Default : Yes

Alternate group : 1

********************************************************

Justice League Snyders Cut.20Download Torrent Magnet

#Justice #League #Snyders #Cut20