Justice.League.Snyders.Cut.20 Full Torrent Magnet Download

Download Torrent Justice.League.Snyders.Cut.20 Movie Full in HD Result. Movie Justice.League.Snyders.Cut.20 Torrent Download full. Movie Justice.League.Snyders.Cut.20 torrent Magnet Download Full. Justice.League.Snyders.Cut.20 Full Movie Torrent Download And Magnet Download For your PC And Mobiles. Latest Movie Justice.League.Snyders.Cut.20 Download Link In Bottom.

Torrent And Magnet Links Below

Quote:

Video

ID : 1

Format : HEVC

Format/Info : High Efficiency Video Coding

Format profile : Main [email protected]@High

HDR format : SMPTE ST 2086, HDR10 compatible

Codec ID : V_MPEGH/ISO/HEVC

Duration : 2 h 21 min

Bit rate : 18.8 Mb/s

Width : 2 880 pixels

Height : 2 160 pixels

Display aspect ratio : 4:3

Frame rate mode : Constant

Frame rate : 23.976 (24000/1001) FPS

Color space : YUV

Chroma subsampling : 4:2:0 (Type 2)

Bit depth : 10 bits

Bits/(Pixel*Frame) : 0.126

Stream size : 18.7 GiB (71%)

Writing library : x265 3.0_Au+10-74a8672ea4f7:[Windows][GCC 8.2.1][64 bit] 10bit

Encoding settings : cpuid=1111039 / frame-threads=6 / numa-pools=24,24,24,24 / wpp / no-pmode / no-pme / no-psnr / no-ssim / log-level=2 / input-csp=1 / input-res=2880×2160 / interlace=0 / total-frames=0 / level-idc=51 / high-tier=1 / uhd-bd=0 / ref=3 / no-allow-non-conformance / repeat-headers / annexb / aud / hrd / info / hash=0 / no-temporal-layers / no-open-gop / min-keyint=1 / keyint=24 / gop-lookahead=0 / bframes=4 / b-adapt=2 / b-pyramid / bframe-bias=0 / rc-lookahead=25 / lookahead-slices=4 / scenecut=40 / radl=0 / no-splice / no-intra-refresh / ctu=64 / min-cu-size=8 / no-rect / no-amp / max-tu-size=32 / tu-inter-depth=1 / tu-intra-depth=1 / limit-tu=0 / rdoq-level=0 / dynamic-rd=0.00 / no-ssim-rd / signhide / no-tskip / nr-intra=0 / nr-inter=0 / no-constrained-intra / strong-intra-smoothing / max-merge=2 / limit-refs=3 / no-limit-modes / me=1 / subme=2 / merange=57 / temporal-mvp / weightp / no-weightb / no-analyze-src-pics / deblock=0:0 / no-sao / no-sao-non-deblock / rd=3 / no-early-skip / rskip / no-fast-intra / no-tskip-fast / no-cu-lossless / no-b-intra / no-splitrd-skip / rdpenalty=0 / psy-rd=2.00 / psy-rdoq=0.00 / no-rd-refine / no-lossless / cbqpoffs=0 / crqpoffs=0 / rc=crf / crf=16.0 / qcomp=0.60 / qpstep=4 / stats-write=0 / stats-read=0 / vbv-maxrate=160000 / vbv-bufsize=160000 / vbv-init=0.9 / crf-max=0.0 / crf-min=0.0 / ipratio=1.40 / pbratio=1.30 / aq-mode=1 / aq-strength=1.00 / cutree / zone-count=0 / no-strict-cbr / qg-size=32 / no-rc-grain / qpmax=69 / qpmin=0 / no-const-vbv / sar=1 / overscan=0 / videoformat=5 / range=0 / colorprim=9 / transfer=16 / colormatrix=9 / chromaloc=1 / chromaloc-top=2 / chromaloc-bottom=2 / display-window=0 / master-display=G(13250,34500)B(7500,3000)R(34000,16000)WP(15635,16450)L(10000000,01) / max-cll=597,122 / min-luma=0 / max-luma=1023 / log2-max-poc-lsb=8 / vui-timing-info / vui-hrd-info / slices=1 / opt-qp-pps / opt-ref-list-length-pps / no-multi-pass-opt-rps / scenecut-bias=0.05 / no-opt-cu-delta-qp / no-aq-motion / hdr / hdr-opt / no-dhdr10-opt / no-idr-recovery-sei / analysis-reuse-level=5 / scale-factor=0 / refine-intra=0 / refine-inter=0 / refine-mv=0 / refine-ctu-distortion=0 / no-limit-sao / ctu-info=0 / no-lowpass-dct / refine-analysis-type=-932896334 / copy-pic=1 / max-ausize-factor=1.0 / no-dynamic-refine / no-single-sei / no-hevc-aq / no-svt / qp-adaptation-range=1.00

Default : Yes

Forced : No

Color range : Limited

Color primaries : BT.2020

Transfer characteristics : PQ

Matrix coefficients : BT.2020 non-constant

Mastering display color primaries : Display P3

Mastering display luminance : min: 0.0001 cd/m2, max: 1000 cd/m2

Maximum Content Light Level : 597 cd/m2

Maximum Frame-Average Light Level : 122 cd/m2

Audio #1

ID : 2

ID in the original source medium : 4352 (0x1100)

Format : MLP FBA 16-ch

Format/Info : Meridian Lossless Packing FBA with 16-channel presentation

Commercial name : Dolby TrueHD with Dolby Atmos

Codec ID : A_TRUEHD

Duration : 2 h 21 min

Bit rate mode : Variable

Bit rate : 3 156 kb/s

Maximum bit rate : 4 773 kb/s

Channel(s) : 8 channels

Channel layout : L R C LFE Ls Rs Lb Rb

Sampling rate : 48.0 kHz

Frame rate : 1 200.000 FPS (40 SPF)

Bit depth : 24 bits

Compression mode : Lossless

Stream size : 3.13 GiB (12%)

Title : TrueHD 7.1 Atmos

Language : English

Default : Yes

Forced : No

Original source medium : Blu-ray

Number of dynamic objects : 11

Bed channel count : 1 channel

Bed channel configuration : LFE

Audio #2

ID : 3

Format : DTS XLL

Format/Info : Digital Theater Systems

Commercial name : DTS-HD Master Audio

Codec ID : A_DTS

Duration : 2 h 21 min

Bit rate mode : Variable

Bit rate : 3 709 kb/s

Channel(s) : 8 channels

Channel layout : C L R LFE Lb Rb Lss Rss

Sampling rate : 48.0 kHz

Frame rate : 93.750 FPS (512 SPF)

Bit depth : 24 bits

Compression mode : Lossless

Stream size : 3.68 GiB (14%)

Title : DTS-HD MA 7.1

Language : English

Default : No

Forced : No

Audio #3

ID : 4

ID in the original source medium : 4352 (0x1100)

Format : AC-3

Format/Info : Audio Coding 3

Commercial name : Dolby Digital

Format settings : Dolby Surround EX

Codec ID : A_AC3

Duration : 2 h 21 min

Bit rate mode : Constant

Bit rate : 448 kb/s

Channel(s) : 6 channels

Channel layout : L R C LFE Ls Rs

Sampling rate : 48.0 kHz

Frame rate : 31.250 FPS (1536 SPF)

Compression mode : Lossy

Stream size : 455 MiB (2%)

Title : DD 5.1

Language : English

Service kind : Complete Main

Default : No

Forced : No

Original source medium : Blu-ray

Text #1

ID : 5

Format : UTF-8

Codec ID : S_TEXT/UTF8

Codec ID/Info : UTF-8 Plain Text

Duration : 2 h 15 min

Bit rate : 34 b/s

Count of elements : 1248

Stream size : 33.8 KiB (0%)

Title : English-SRT

Language : English

Default : Yes

Forced : No

Text #2

ID : 6

ID in the original source medium : 4769 (0x12A1)

Format : PGS

Muxing mode : zlib

Codec ID : S_HDMV/PGS

Codec ID/Info : Picture based subtitle format used on BDs/HD-DVDs

Duration : 2 h 20 min

Bit rate : 27.2 kb/s

Count of elements : 3380

Stream size : 27.4 MiB (0%)

Language : English

Default : No

Forced : No

Original source medium : Blu-ray

Text #3

ID : 7

ID in the original source medium : 4768 (0x12A0)

Format : PGS

Muxing mode : zlib

Codec ID : S_HDMV/PGS

Codec ID/Info : Picture based subtitle format used on BDs/HD-DVDs

Duration : 2 h 15 min

Bit rate : 14.2 kb/s

Count of elements : 2110

Stream size : 13.8 MiB (0%)

Language : Japanese

Default : No

Forced : No

Original source medium : Blu-ray

Text #4

ID : 8

ID in the original source medium : 4770 (0x12A2)

Format : PGS

Muxing mode : zlib

Codec ID : S_HDMV/PGS

Codec ID/Info : Picture based subtitle format used on BDs/HD-DVDs

Duration : 2 h 15 min

Bit rate : 18.3 kb/s

Count of elements : 2244

Stream size : 17.7 MiB (0%)

Language : French

Default : No

Forced : No

Original source medium : Blu-ray

Text #5

ID : 9

ID in the original source medium : 4771 (0x12A3)

Format : PGS

Muxing mode : zlib

Codec ID : S_HDMV/PGS

Codec ID/Info : Picture based subtitle format used on BDs/HD-DVDs

Duration : 2 h 21 min

Bit rate : 28.9 kb/s

Count of elements : 2708

Stream size : 29.2 MiB (0%)

Language : German

Default : No

Forced : No

Original source medium : Blu-ray

Text #6

ID : 10

ID in the original source medium : 4772 (0x12A4)

Format : PGS

Muxing mode : zlib

Codec ID : S_HDMV/PGS

Codec ID/Info : Picture based subtitle format used on BDs/HD-DVDs

Duration : 2 h 20 min

Bit rate : 25.9 kb/s

Count of elements : 3274

Stream size : 26.1 MiB (0%)

Language : Italian

Default : No

Forced : No

Original source medium : Blu-ray

Text #7

ID : 11

ID in the original source medium : 4773 (0x12A5)

Format : PGS

Muxing mode : zlib

Codec ID : S_HDMV/PGS

Codec ID/Info : Picture based subtitle format used on BDs/HD-DVDs

Duration : 2 h 19 min

Bit rate : 20.6 kb/s

Count of elements : 2330

Stream size : 20.5 MiB (0%)

Language : Spanish

Default : No

Forced : No

Original source medium : Blu-ray

Text #8

ID : 12

ID in the original source medium : 4774 (0x12A6)

Format : PGS

Muxing mode : zlib

Codec ID : S_HDMV/PGS

Codec ID/Info : Picture based subtitle format used on BDs/HD-DVDs

Duration : 2 h 15 min

Bit rate : 18.6 kb/s

Count of elements : 1930

Stream size : 18.1 MiB (0%)

Language : Dutch

Default : No

Forced : No

Original source medium : Blu-ray

Text #9

ID : 13

ID in the original source medium : 4775 (0x12A7)

Format : PGS

Muxing mode : zlib

Codec ID : S_HDMV/PGS

Codec ID/Info : Picture based subtitle format used on BDs/HD-DVDs

Duration : 2 h 19 min

Bit rate : 20.1 kb/s

Count of elements : 2338

Stream size : 20.1 MiB (0%)

Language : Chinese

Default : No

Forced : No

Original source medium : Blu-ray

Text #10

ID : 14

ID in the original source medium : 4776 (0x12A8)

Format : PGS

Muxing mode : zlib

Codec ID : S_HDMV/PGS

Codec ID/Info : Picture based subtitle format used on BDs/HD-DVDs

Duration : 2 h 19 min

Bit rate : 21.7 kb/s

Count of elements : 2344

Stream size : 21.6 MiB (0%)

Language : Chinese

Default : No

Forced : No

Original source medium : Blu-ray

Text #11

ID : 15

ID in the original source medium : 4777 (0x12A9)

Format : PGS

Muxing mode : zlib

Codec ID : S_HDMV/PGS

Codec ID/Info : Picture based subtitle format used on BDs/HD-DVDs

Duration : 2 h 19 min

Bit rate : 13.5 kb/s

Count of elements : 2330

Stream size : 13.5 MiB (0%)

Language : Korean

Default : No

Forced : No

Original source medium : Blu-ray

Text #12

ID : 16

ID in the original source medium : 4778 (0x12AA)

Format : PGS

Muxing mode : zlib

Codec ID : S_HDMV/PGS

Codec ID/Info : Picture based subtitle format used on BDs/HD-DVDs

Duration : 2 h 19 min

Bit rate : 19.5 kb/s

Count of elements : 1796

Stream size : 19.5 MiB (0%)

Language : Spanish

Default : No

Forced : No

Original source medium : Blu-ray

Text #13

ID : 17

ID in the original source medium : 4779 (0x12AB)

Format : PGS

Muxing mode : zlib

Codec ID : S_HDMV/PGS

Codec ID/Info : Picture based subtitle format used on BDs/HD-DVDs

Duration : 2 h 19 min

Bit rate : 19.2 kb/s

Count of elements : 2318

Stream size : 19.1 MiB (0%)

Language : Czech

Default : No

Forced : No

Original source medium : Blu-ray

Text #14

ID : 18

ID in the original source medium : 4780 (0x12AC)

Format : PGS

Muxing mode : zlib

Codec ID : S_HDMV/PGS

Codec ID/Info : Picture based subtitle format used on BDs/HD-DVDs

Duration : 2 h 15 min

Bit rate : 18.8 kb/s

Count of elements : 1526

Stream size : 18.2 MiB (0%)

Language : Danish

Default : No

Forced : No

Original source medium : Blu-ray

Text #15

ID : 19

ID in the original source medium : 4781 (0x12AD)

Format : PGS

Muxing mode : zlib

Codec ID : S_HDMV/PGS

Codec ID/Info : Picture based subtitle format used on BDs/HD-DVDs

Duration : 2 h 15 min

Bit rate : 20.0 kb/s

Count of elements : 2320

Stream size : 19.4 MiB (0%)

Language : Finnish

Default : No

Forced : No

Original source medium : Blu-ray

Text #16

ID : 20

ID in the original source medium : 4782 (0x12AE)

Format : PGS

Muxing mode : zlib

Codec ID : S_HDMV/PGS

Codec ID/Info : Picture based subtitle format used on BDs/HD-DVDs

Duration : 2 h 15 min

Bit rate : 21.8 kb/s

Count of elements : 2328

Stream size : 21.2 MiB (0%)

Language : Greek

Default : No

Forced : No

Original source medium : Blu-ray

Text #17

ID : 21

ID in the original source medium : 4783 (0x12AF)

Format : PGS

Muxing mode : zlib

Codec ID : S_HDMV/PGS

Codec ID/Info : Picture based subtitle format used on BDs/HD-DVDs

Duration : 2 h 19 min

Bit rate : 19.1 kb/s

Count of elements : 1822

Stream size : 19.1 MiB (0%)

Language : Hungarian

Default : No

Forced : No

Original source medium : Blu-ray

Text #18

ID : 22

ID in the original source medium : 4784 (0x12B0)

Format : PGS

Muxing mode : zlib

Codec ID : S_HDMV/PGS

Codec ID/Info : Picture based subtitle format used on BDs/HD-DVDs

Duration : 2 h 15 min

Bit rate : 20.1 kb/s

Count of elements : 1850

Stream size : 19.5 MiB (0%)

Language : Norwegian

Default : No

Forced : No

Original source medium : Blu-ray

Text #19

ID : 23

ID in the original source medium : 4785 (0x12B1)

Format : PGS

Muxing mode : zlib

Codec ID : S_HDMV/PGS

Codec ID/Info : Picture based subtitle format used on BDs/HD-DVDs

Duration : 2 h 19 min

Bit rate : 20.4 kb/s

Count of elements : 2304

Stream size : 20.4 MiB (0%)

Language : Polish

Default : No

Forced : No

Original source medium : Blu-ray

Text #20

ID : 24

ID in the original source medium : 4786 (0x12B2)

Format : PGS

Muxing mode : zlib

Codec ID : S_HDMV/PGS

Codec ID/Info : Picture based subtitle format used on BDs/HD-DVDs

Duration : 2 h 15 min

Bit rate : 20.0 kb/s

Count of elements : 2236

Stream size : 19.4 MiB (0%)

Language : Romanian

Default : No

Forced : No

Original source medium : Blu-ray

Text #21

ID : 25

ID in the original source medium : 4787 (0x12B3)

Format : PGS

Muxing mode : zlib

Codec ID : S_HDMV/PGS

Codec ID/Info : Picture based subtitle format used on BDs/HD-DVDs

Duration : 2 h 15 min

Bit rate : 18.3 kb/s

Count of elements : 2220

Stream size : 17.8 MiB (0%)

Language : Swedish

Default : No

Forced : No

Original source medium : Blu-ray

Text #22

ID : 26

ID in the original source medium : 4788 (0x12B4)

Format : PGS

Muxing mode : zlib

Codec ID : S_HDMV/PGS

Codec ID/Info : Picture based subtitle format used on BDs/HD-DVDs

Duration : 2 h 12 min

Bit rate : 291 b/s

Count of elements : 26

Stream size : 284 KiB (0%)

Title : FORCED

Language : French

Default : No

Forced : No

Original source medium : Blu-ray

Text #23

ID : 27

ID in the original source medium : 4789 (0x12B5)

Format : PGS

Muxing mode : zlib

Codec ID : S_HDMV/PGS

Codec ID/Info : Picture based subtitle format used on BDs/HD-DVDs

Duration : 2 h 12 min

Bit rate : 204 b/s

Count of elements : 28

Stream size : 199 KiB (0%)

Title : FORCED

Language : German

Default : No

Forced : No

Original source medium : Blu-ray

Text #24

ID : 28

ID in the original source medium : 4790 (0x12B6)

Format : PGS

Muxing mode : zlib

Codec ID : S_HDMV/PGS

Codec ID/Info : Picture based subtitle format used on BDs/HD-DVDs

Duration : 2 h 12 min

Bit rate : 498 b/s

Count of elements : 42

Stream size : 486 KiB (0%)

Title : FORCED

Language : Italian

Default : No

Forced : No

Original source medium : Blu-ray

Text #25

ID : 29

ID in the original source medium : 4791 (0x12B7)

Format : PGS

Muxing mode : zlib

Codec ID : S_HDMV/PGS

Codec ID/Info : Picture based subtitle format used on BDs/HD-DVDs

Duration : 2 h 12 min

Bit rate : 382 b/s

Count of elements : 36

Stream size : 373 KiB (0%)

Title : FORCED

Language : Spanish

Default : No

Forced : No

Original source medium : Blu-ray

Text #26

ID : 30

ID in the original source medium : 4792 (0x12B8)

Format : PGS

Muxing mode : zlib

Codec ID : S_HDMV/PGS

Codec ID/Info : Picture based subtitle format used on BDs/HD-DVDs

Duration : 59 min 46 s

Bit rate : 205 b/s

Count of elements : 10

Stream size : 89.9 KiB (0%)

Title : FORCED

Language : Spanish

Default : No

Forced : No

Original source medium : Blu-ray

Text #27

ID : 31

ID in the original source medium : 4793 (0x12B9)

Format : PGS

Muxing mode : zlib

Codec ID : S_HDMV/PGS

Codec ID/Info : Picture based subtitle format used on BDs/HD-DVDs

Duration : 2 h 12 min

Bit rate : 434 b/s

Count of elements : 40

Stream size : 423 KiB (0%)

Title : FORCED

Language : Czech

Default : No

Forced : No

Original source medium : Blu-ray

Text #28

ID : 32

ID in the original source medium : 4794 (0x12BA)

Format : PGS

Muxing mode : zlib

Codec ID : S_HDMV/PGS

Codec ID/Info : Picture based subtitle format used on BDs/HD-DVDs

Duration : 2 h 12 min

Bit rate : 496 b/s

Count of elements : 46

Stream size : 484 KiB (0%)

Title : FORCED

Language : Polish

Default : No

Forced : No

Original source medium : Blu-ray

Text #29

ID : 33

ID in the original source medium : 4795 (0x12BB)

Format : PGS

Muxing mode : zlib

Codec ID : S_HDMV/PGS

Codec ID/Info : Picture based subtitle format used on BDs/HD-DVDs

Duration : 2 h 13 min

Bit rate : 301 b/s

Count of elements : 50

Stream size : 294 KiB (0%)

Title : FORCED

Language : Japanese

Default : No

Forced : No

Original source medium : Blu-ray

Menu

00:00:00.000 : Chapter 01

00:08:54.951 : Chapter 02

00:19:56.737 : Chapter 03

00:36:54.670 : Chapter 04

00:41:32.031 : Chapter 05

00:50:18.640 : Chapter 06

00:58:42.644 : Chapter 07

01:08:35.736 : Chapter 08

01:20:27.989 : Chapter 09

01:30:05.274 : Chapter 10

01:40:28.439 : Chapter 11

01:51:24.177 : Chapter 12

01:59:06.931 : Chapter 13

02:07:56.043 : Chapter 14

Justice.League.Snyders.Cut.20Download Torrent Magnet

#JusticeLeagueSnydersCut20