Justice.League.Snyders.Cut.20 Full Torrent Magnet Download

Download Torrent Justice.League.Snyders.Cut.20 Movie Full in HD Result. Movie Justice.League.Snyders.Cut.20 Torrent Download full. Movie Justice.League.Snyders.Cut.20 torrent Magnet Download Full. Justice.League.Snyders.Cut.20 Full Movie Torrent Download And Magnet Download For your PC And Mobiles. Latest Movie Justice.League.Snyders.Cut.20 Download Link In Bottom.

Torrent And Magnet Links Below

Justice.League.Snyders.Cut.2021.WEBRip.720p.H264.AAC2.0 – Sungeorge

Quote:

Justice.League.Snyders.Cut.2021.WEBRip.720p.H264.AAC2.0 – Sungeorge



Code:

General

Complete name : MovieAIO.club – Justice.League.Snyders.Cut.2021.WEBRip.720p.H264.AAC2.0.mkv

Format : Matroska

Format version : Version 4

File size : 2.52 GiB

Duration : 4 h 2 min

Overall bit rate : 1 487 kb/s

Movie name : MovieAIO.club

Encoded date : UTC 2021-03-17 08:01:32

Writing application : mkvmerge v51.0.0 (‘I Wish’) 64-bit

Writing library : libebml v1.4.0 + libmatroska v1.6.2 / Lavf58.12.100

Video

ID : 1

Format : AVC

Format/Info : Advanced Video Codec

Format profile : [email protected]
Format settings : CABAC / 2 Ref Frames

Format settings, CABAC : Yes

Format settings, Reference frames : 2 frames

Format settings, GOP : M=1, N=25

Codec ID : V_MPEG4/ISO/AVC

Duration : 4 h 2 min

Bit rate : 1 302 kb/s

Width : 1 280 pixels

Height : 720 pixels

Display aspect ratio : 16:9

Frame rate mode : Constant

Frame rate : 24.000 FPS

Color space : YUV

Chroma subsampling : 4:2:0

Bit depth : 8 bits

Scan type : Progressive

Bits/(Pixel*Frame) : 0.059

Stream size : 2.21 GiB (88%)

Title : MovieAIO.club

Default : Yes

Forced : No

Audio

ID : 2

Format : AAC LC

Format/Info : Advanced Audio Codec Low Complexity

Codec ID : A_AAC-2

Duration : 4 h 2 min

Bit rate : 182 kb/s

Channel(s) : 2 channels

Channel layout : L R

Sampling rate : 44.1 kHz

Frame rate : 43.066 FPS (1024 SPF)

Compression mode : Lossy

Stream size : 317 MiB (12%)

Title : MovieAIO.club

Default : Yes

Forced : No

Justice.League.Snyders.Cut.20Download Torrent Magnet

#JusticeLeagueSnydersCut20