Jumanji: The Next Level (2019 Full Torrent Magnet Download

Download Torrent Jumanji: The Next Level (2019 Movie Full in HD Result. Movie Jumanji: The Next Level (2019 Torrent Download full. Movie Jumanji: The Next Level (2019 torrent Magnet Download Full. Jumanji: The Next Level (2019 Full Movie Torrent Download And Magnet Download For your PC And Mobiles. Latest Movie Jumanji: The Next Level (2019 Download Link In Bottom.

Torrent And Magnet Links Below

General

Format : Matroska

Format version : Version 4

File size : 14.6 GiB

Duration : 2 h 3 min

Overall bit rate mode : Variable

Overall bit rate : 17.0 Mb/s

Movie name : Jumanji: The Next Level (2019)

Encoded date : UTC 2021-06-07 02:20:05

Writing application : mkvmerge v53.0.0 (‘Fool’s Gold’) 64-bit

Writing library : libebml v1.4.1 + libmatroska v1.6.2

Video

ID : 1

Format : HEVC

Format/Info : High Efficiency Video Coding

Format profile : Main [email protected]@Main

HDR format : SMPTE ST 2086, HDR10 compatible

Codec ID : V_MPEGH/ISO/HEVC

Duration : 2 h 3 min

Bit rate : 10.6 Mb/s

Width : 3 840 pixels

Height : 1 608 pixels

Display aspect ratio : 2.40:1

Frame rate mode : Constant

Frame rate : 23.976 (24000/1001) FPS

Color space : YUV

Chroma subsampling : 4:2:0 (Type 2)

Bit depth : 10 bits

Bits/(Pixel*Frame) : 0.072

Stream size : 9.15 GiB (63%)

Writing library : x265 3.5_RC1+2+23-bd060601e:[Windows][GCC 10.2.0][64 bit] 10bit

Encoding settings : cpuid=1111039 / frame-threads=4 / numa-pools=24 / wpp / no-pmode / no-pme / no-psnr / no-ssim / log-level=2 / input-csp=1 / input-res=3840×1608 / interlace=0 / total-frames=177192 / level-idc=0 / high-tier=1 / uhd-bd=0 / ref=5 / no-allow-non-conformance / repeat-headers / annexb / aud / no-hrd / info / hash=0 / no-temporal-layers / open-gop / min-keyint=23 / keyint=250 / gop-lookahead=0 / bframes=8 / b-adapt=2 / b-pyramid / bframe-bias=0 / rc-lookahead=40 / lookahead-slices=1 / scenecut=40 / hist-scenecut=0 / radl=0 / no-splice / no-intra-refresh / ctu=64 / min-cu-size=8 / rect / amp / max-tu-size=32 / tu-inter-depth=3 / tu-intra-depth=3 / limit-tu=4 / rdoq-level=2 / dynamic-rd=0.00 / no-ssim-rd / signhide / no-tskip / nr-intra=0 / nr-inter=0 / no-constrained-intra / strong-intra-smoothing / max-merge=4 / limit-refs=1 / limit-modes / me=3 / subme=4 / merange=57 / temporal-mvp / no-frame-dup / no-hme / weightp / weightb / no-analyze-src-pics / deblock=0:0 / sao / no-sao-non-deblock / rd=6 / selective-sao=4 / no-early-skip / rskip / no-fast-intra / no-tskip-fast / no-cu-lossless / b-intra / no-splitrd-skip / rdpenalty=0 / psy-rd=2.00 / psy-rdoq=1.00 / no-rd-refine / no-lossless / cbqpoffs=0 / crqpoffs=0 / rc=crf / crf=18.0 / qcomp=0.60 / qpstep=4 / stats-write=0 / stats-read=0 / ipratio=1.40 / pbratio=1.30 / aq-mode=3 / aq-strength=1.00 / cutree / zone-count=0 / no-strict-cbr / qg-size=32 / no-rc-grain / qpmax=69 / qpmin=0 / no-const-vbv / sar=0 / overscan=0 / videoformat=5 / range=0 / colorprim=9 / transfer=16 / colormatrix=9 / chromaloc=1 / chromaloc-top=2 / chromaloc-bottom=2 / display-window=0 / master-display=G(13250,34500)B(7500,3000)R(34000,16000)WP(15635,16450)L(40000000,50) / cll=6248,902 / min-luma=0 / max-luma=1023 / log2-max-poc-lsb=8 / vui-timing-info / vui-hrd-info / slices=1 / no-opt-qp-pps / no-opt-ref-list-length-pps / no-multi-pass-opt-rps / scenecut-bias=0.05 / hist-threshold=0.03 / no-opt-cu-delta-qp / no-aq-motion / hdr10 / no-hdr10-opt / no-dhdr10-opt / no-idr-recovery-sei / analysis-reuse-level=0 / analysis-save-reuse-level=0 / analysis-load-reuse-level=0 / scale-factor=0 / refine-intra=0 / refine-inter=0 / refine-mv=1 / refine-ctu-distortion=0 / no-limit-sao / ctu-info=0 / no-lowpass-dct / refine-analysis-type=0 / copy-pic=1 / max-ausize-factor=1.0 / no-dynamic-refine / no-single-sei / no-hevc-aq / no-svt / no-field / qp-adaptation-range=1.00 / scenecut-aware-qp=0conformance-window-offsets / right=0 / bottom=0 / decoder-max-rate=0 / no-vbv-live-multi-pass

Default : Yes

Forced : No

Color range : Limited

Color primaries : BT.2020

Transfer characteristics : PQ

Matrix coefficients : BT.2020 non-constant

Mastering display color primaries : Display P3

Mastering display luminance : min: 0.0050 cd/m2, max: 4000 cd/m2

Maximum Content Light Level : 6248 cd/m2

Maximum Frame-Average Light Level : 902 cd/m2

Audio

ID : 2

Format : DTS XLL

Format/Info : Digital Theater Systems

Commercial name : DTS-HD Master Audio

Codec ID : A_DTS

Duration : 2 h 3 min

Bit rate mode : Variable

Bit rate : 6 291 kb/s

Channel(s) : 8 channels

Channel layout : C L R LFE Lb Rb Lss Rss

Sampling rate : 48.0 kHz

Frame rate : 93.750 FPS (512 SPF)

Bit depth : 24 bits

Compression mode : Lossless

Stream size : 5.41 GiB (37%)

Language : English

Default : Yes

Forced : No

Text #1

ID : 3

Format : PGS

Muxing mode : zlib

Codec ID : S_HDMV/PGS

Codec ID/Info : Picture based subtitle format used on BDs/HD-DVDs

Duration : 1 h 52 min

Bit rate : 35.2 kb/s

Count of elements : 3114

Stream size : 28.4 MiB (0%)

Language : English

Default : No

Forced : No

Text #2

ID : 4

Format : PGS

Muxing mode : zlib

Codec ID : S_HDMV/PGS

Codec ID/Info : Picture based subtitle format used on BDs/HD-DVDs

Duration : 2 h 2 min

Bit rate : 37.0 kb/s

Count of elements : 3704

Stream size : 32.4 MiB (0%)

Title : SDH

Language : English

Default : No

Forced : No

Menu

00:00:00.000 : en:Chapter 1

00:09:18.349 : en:Chapter 2

00:17:40.476 : en:Chapter 3

00:23:10.681 : en:Chapter 4

00:31:12.287 : en:Chapter 5

00:38:19.130 : en:Chapter 6

00:42:39.265 : en:Chapter 7

00:48:52.972 : en:Chapter 8

00:57:11.428 : en:Chapter 9

01:06:03.001 : en:Chapter 10

01:13:16.142 : en:Chapter 11

01:21:29.093 : en:Chapter 12

01:28:33.725 : en:Chapter 13

01:32:39.512 : en:Chapter 14

01:37:05.403 : en:Chapter 15

01:45:00.586 : en:Chapter 16

Source:

Remux 46.2 GB

Coming Soon:

Apt Pupil

The Avengers 4k

Up in the Air

True Grit
Troy

Traitor

Avengers: Age of Ultron 4k

Atlantis: Lost Empire

Bad Santa

BASEketball

Beerfest

Avengers: Infinity War 4k

Arrested Development S02

Mobile Suit Gundam 00 S02

Jumanji: The Next Level (2019Download Torrent Magnet

#Jumanji #Level