Journey to the Center of the Full Torrent Magnet Download

Download Torrent Journey to the Center of the Movie Full in HD Result. Movie Journey to the Center of the Torrent Download full. Movie Journey to the Center of the torrent Magnet Download Full. Journey to the Center of the Full Movie Torrent Download And Magnet Download For your PC And Mobiles. Latest Movie Journey to the Center of the Download Link In Bottom.

Torrent And Magnet Links Below

Same Planet. Different World…

Journey to the Center of the Earth (2008) 1080p 10bit Bluray x265 HEVC English DDP 5.1 MSubs ~ TombDoc

Code:

Format                                   : Matroska

Format version                           : Version 4

File size                                : 3.01 GiB

Duration                                 : 1 h 32 min

Overall bit rate                         : 4 649 kb/s

Video

ID                                       : 1

Format                                   : HEVC

Format/Info                              : High Efficiency Video Coding

Format profile                           : Main [email protected]@Main

Codec ID                                 : V_MPEGH/ISO/HEVC

Duration                                 : 1 h 32 min

Bit rate                                 : 3 969 kb/s

Width                                    : 1 920 pixels

Height                                   : 1 080 pixels

Display aspect ratio                     : 16:9

Frame rate mode                          : Constant

Frame rate                               : 23.976 (24000/1001) FPS

Color space                              : YUV

Chroma subsampling                       : 4:2:0

Bit depth                                : 10 bits

Bits/(Pixel*Frame)                       : 0.080

Stream size                              : 2.57 GiB (85%)

Writing library                          : x265M – 3.4+28-419182243:[Windows][GCC 10.2.0][64 bit] 10bit

Encoding settings                        : cpuid=1111039 / frame-threads=4 / numa-pools=24 / wpp / no-pmode / no-pme / no-psnr / no-ssim / log-level=2 / input-csp=1 / input-res=1920×1080 / interlace=0 / total-frames=133183 / level-idc=0 / high-tier=1 / uhd-bd=0 / ref=5 / no-allow-non-conformance / no-repeat-headers / annexb / no-aud / no-hrd / info / hash=0 / no-temporal-layers / open-gop / min-keyint=23 / keyint=250 / gop-lookahead=0 / bframes=8 / b-adapt=2 / b-pyramid / bframe-bias=0 / rc-lookahead=100 / lookahead-slices=4 / scenecut=40 / hist-scenecut=0 / radl=0 / no-splice / no-intra-refresh / ctu=64 / min-cu-size=8 / rect / amp / max-tu-size=32 / tu-inter-depth=2 / tu-intra-depth=2 / limit-tu=1 / rdoq-level=2 / dynamic-rd=0.00 / ssim-rd / signhide / no-tskip / nr-intra=0 / nr-inter=0 / no-constrained-intra / strong-intra-smoothing / max-merge=5 / limit-refs=3 / limit-modes / me=3 / subme=6 / merange=57 / temporal-mvp / no-frame-dup / no-hme / weightp / no-weightb / no-analyze-src-pics / deblock=0:0 / sao / no-sao-non-deblock / rd=4 / selective-sao=4 / no-early-skip / rskip / no-fast-intra / no-tskip-fast / no-cu-lossless / no-b-intra / no-splitrd-skip / rdpenalty=0 / psy-rd=0.00 / psy-rdoq=2.00 / no-rd-refine / no-lossless / cbqpoffs=0 / crqpoffs=0 / rc=abr / bitrate=4000 / qcomp=0.60 / qpstep=4 / stats-write=0 / stats-read=2 / cplxblur=20.0 / qblur=0.5 / ipratio=1.40 / pbratio=1.30 / aq-mode=4 / aq-strength=1.00 / cutree / zone-count=0 / no-strict-cbr / qg-size=32 / rc-grain / qpmax=69 / qpmin=0 / no-const-vbv / sar=0 / overscan=0 / videoformat=5 / range=0 / colorprim=2 / transfer=2 / colormatrix=2 / chromaloc=0 / display-window=0 / cll=0,0 / min-luma=0 / max-luma=1023 / log2-max-poc-lsb=8 / vui-timing-info / vui-hrd-info / slices=1 / no-opt-qp-pps / no-opt-ref-list-length-pps / no-multi-pass-opt-rps / scenecut-bias=0.05 / hist-threshold=0.03 / no-opt-cu-delta-qp / aq-motion / no-hdr10 / no-hdr10-opt / no-dhdr10-opt / no-idr-recovery-sei / analysis-reuse-level=0 / analysis-save-reuse-level=0 / analysis-load-reuse-level=0 / scale-factor=0 / refine-intra=0 / refine-inter=0 / refine-mv=1 / refine-ctu-distortion=0 / no-limit-sao / ctu-info=0 / no-lowpass-dct / refine-analysis-type=0 / copy-pic=1 / max-ausize-factor=1.0 / no-dynamic-refine / no-single-sei / hevc-aq / no-svt / no-field / qp-adaptation-range=1.00 / no-scenecut-aware-qpconformance-window-offsets / right=0 / bottom=0 / decoder-max-rate=0 / no-vbv-live-multi-pass

Default                                  : Yes

Forced                                   : No

Audio

ID                                       : 2

Format                                   : E-AC-3

Format/Info                              : Enhanced AC-3

Commercial name                          : Dolby Digital Plus

Codec ID                                 : A_EAC3

Duration                                 : 1 h 32 min

Bit rate mode                            : Constant

Bit rate                                 : 640 kb/s

Channel(s)                               : 6 channels

Channel layout                           : L R C LFE Ls Rs

Sampling rate                            : 48.0 kHz

Frame rate                               : 31.250 FPS (1536 SPF)

Compression mode                         : Lossy

Stream size                              : 424 MiB (14%)

Title                                    : English DD+ 5.1 640Kbps ~ TombDoc

Language                                 : English

Service kind                             : Complete Main

Default                                  : Yes

Forced                                   : Yes

Text #1

ID                                       : 3

Format                                   : PGS

Muxing mode                              : zlib

Codec ID                                 : S_HDMV/PGS

Codec ID/Info                            : Picture based subtitle format used on BDs/HD-DVDs

Duration                                 : 1 h 24 min

Bit rate                                 : 25.7 kb/s

Count of elements                        : 2088

Stream size                              : 15.6 MiB (1%)

Title                                    : Hindi BD-PGS

Language                                 : Hindi

Default                                  : Yes

Forced                                   : Yes

Text #2

ID                                       : 4

Format                                   : PGS

Muxing mode                              : zlib

Codec ID                                 : S_HDMV/PGS

Codec ID/Info                            : Picture based subtitle format used on BDs/HD-DVDs

Duration                                 : 1 h 31 min

Bit rate                                 : 30.3 kb/s

Count of elements                        : 2252

Stream size                              : 19.9 MiB (1%)

Title                                    : Eng BD-PGS-SDH

Language                                 : English

Default                                  : No

Forced                                   : No

Text #3

ID                                       : 5

Format                                   : PGS

Muxing mode                              : zlib

Codec ID                                 : S_HDMV/PGS

Codec ID/Info                            : Picture based subtitle format used on BDs/HD-DVDs

Duration                                 : 1 h 24 min

Bit rate                                 : 39.4 kb/s

Count of elements                        : 2090

Stream size                              : 23.9 MiB (1%)

Title                                    : Tamil BD-PGS

Language                                 : Tamil

Default                                  : No

Forced                                   : No

Text #4

ID                                       : 6

Format                                   : PGS

Muxing mode                              : zlib

Codec ID                                 : S_HDMV/PGS

Codec ID/Info                            : Picture based subtitle format used on BDs/HD-DVDs

Duration                                 : 1 h 24 min

Bit rate                                 : 29.0 kb/s

Count of elements                        : 2090

Stream size                              : 17.6 MiB (1%)

Title                                    : Telugu BD-PGS

Language                                 : Telugu

Default                                  : No

Forced                                   : No

Menu

00:00:00.000                             : en:Pulling the Plug

00:03:21.618                             : en:Family Visitors

00:07:13.850                             : en:Notes for a Journey

00:11:56.424                             : en:Fellow Vernians

00:17:51.362                             : en:Buried Inside

00:22:22.007                             : en:Going Down

00:28:11.023                             : en:Runaway Rides

00:33:36.473                             : en:Long-haul Fall

00:38:58.294                             : en:Glow Birds

00:42:18.035                             : en:Center of the Earth

00:45:23.596                             : en:Father’s Farewell

00:51:20.369                             : en:Setting Sail

00:56:32.639                             : en:Batting Cage

01:00:20.867                             : en:Lively Plant Life

01:05:20.458                             : en:Flight Stones

01:08:56.090                             : en:Dinosaur Danger

01:14:09.737                             : en:Dinosaur Bait

01:15:58.012                             : en:Tight Spot

01:19:05.449                             : en:Extreme Steam

01:22:02.835                             : en:Now We’re Even

01:26:07.996                             : en:End Credits

Code:

Source: Journey to the Center of the Earth 2008 Hybrid 1080p Blu-ray Remux AVC DTS-HD MA 5.1 – KRaLiMaRKo

EnjOyY…


Journey to the Center of the Download Torrent Magnet

#Journey #Center