Jeopardy.2021.04.22.720p.HDTV Full Torrent Magnet Download

Download Torrent Jeopardy.2021.04.22.720p.HDTV Movie Full in HD Result. Movie Jeopardy.2021.04.22.720p.HDTV Torrent Download full. Movie Jeopardy.2021.04.22.720p.HDTV torrent Magnet Download Full. Jeopardy.2021.04.22.720p.HDTV Full Movie Torrent Download And Magnet Download For your PC And Mobiles. Latest Movie Jeopardy.2021.04.22.720p.HDTV Download Link In Bottom.

Torrent And Magnet Links Below

Code:

General

Unique ID : 245126570140957678032240004915863717158 (0xB869A9003DEC1354F48BB623CFA78526)

Complete name : Jeopardy.2021.04.22.720p.HDTV.H.264-NTb.mkv

Format : Matroska

Format version : Version 4

File size : 407 MiB

Duration : 19 min 52 s

Overall bit rate : 2 864 kb/s

Encoded date : UTC 2021-04-22 05:46:30

Writing application : mkvmerge v37.0.0 (‘Leave It’) 64-bit

Writing library : libebml v1.3.9 + libmatroska v1.5.2

Video

ID : 1

Format : AVC

Format/Info : Advanced Video Codec

Format profile : [email protected]
Format settings : CABAC / 9 Ref Frames

Format settings, CABAC : Yes

Format settings, Reference frames : 9 frames

Codec ID : V_MPEG4/ISO/AVC

Duration : 19 min 52 s

Bit rate : 2 604 kb/s

Width : 1 280 pixels

Height : 720 pixels

Display aspect ratio : 16:9

Frame rate mode : Constant

Frame rate : 59.940 (60000/1001) FPS

Color space : YUV

Chroma subsampling : 4:2:0

Bit depth : 8 bits

Scan type : Progressive

Bits/(Pixel*Frame) : 0.047

Stream size : 370 MiB (91%)

Writing library : x264 core 160 r3000 33f9e14

Encoding settings : cabac=1 / ref=9 / deblock=1:-3:-3 / analyse=0x3:0x133 / me=umh / subme=10 / psy=1 / psy_rd=1.00:0.00 / mixed_ref=1 / me_range=24 / chroma_me=1 / trellis=2 / 8x8dct=1 / cqm=0 / deadzone=21,11 / fast_pskip=1 / chroma_qp_offset=-2 / threads=22 / lookahead_threads=3 / sliced_threads=0 / nr=0 / decimate=1 / interlaced=0 / bluray_compat=0 / constrained_intra=0 / bframes=8 / b_pyramid=2 / b_adapt=2 / b_bias=0 / direct=3 / weightb=1 / open_gop=0 / weightp=2 / keyint=250 / keyint_min=25 / scenecut=40 / intra_refresh=0 / rc_lookahead=60 / rc=crf / mbtree=1 / crf=19.0 / qcomp=0.60 / qpmin=0 / qpmax=69 / qpstep=4 / ip_ratio=1.40 / aq=1:1.00

Default : Yes

Forced : No

Audio

ID : 2

Format : AAC LC

Format/Info : Advanced Audio Codec Low Complexity

Codec ID : A_AAC-2

Duration : 19 min 52 s

Bit rate : 256 kb/s

Channel(s) : 2 channels

Channel layout : L R

Sampling rate : 48.0 kHz

Frame rate : 46.875 FPS (1024 SPF)

Compression mode : Lossy

Stream size : 36.4 MiB (9%)

Language : English

Default : Yes

Forced : No

Text

ID : 3

Format : UTF-8

Codec ID : S_TEXT/UTF8

Codec ID/Info : UTF-8 Plain Text

Duration : 18 min 37 s

Bit rate : 93 b/s

Count of elements : 388

Stream size : 12.8 KiB (0%)

Language : English

Default : Yes

Forced : No

Jeopardy.2021.04.22.720p.HDTVDownload Torrent Magnet

#Jeopardy20210422720pHDTV