Jason.Bourne.2016.UHD.BluRay. Full Torrent Magnet Download

Download Torrent Jason.Bourne.2016.UHD.BluRay. Movie Full in HD Result. Movie Jason.Bourne.2016.UHD.BluRay. Torrent Download full. Movie Jason.Bourne.2016.UHD.BluRay. torrent Magnet Download Full. Jason.Bourne.2016.UHD.BluRay. Full Movie Torrent Download And Magnet Download For your PC And Mobiles. Latest Movie Jason.Bourne.2016.UHD.BluRay. Download Link In Bottom.

Torrent And Magnet Links Below

DATI – TRAMA

Titolo Originale: Jason Bourne

Anno: 2016

Genere: Action, Thriller

Durata: 123

Nazione: United Kingdom, China, United States

Regista: Paul Greengrass

Sceneggiatura: Paul Greengrass, Christopher Rouse, Robert Ludlum

Produzione: Captivate Entertainment, Double Negative, Kennedy/Marshall Company, The, Pearl Street Films, Perfect World Pictures (Beijing)

Cast: Matt Damon, Tommy Lee Jones, Alicia Vikander, Vincent Cassel, Julia Stiles, Riz Ahmed, Ato Essandoh, Scott Shepherd, Bill Camp, Vinzenz Kiefer, Stephen Kunken, Ben Stylianou, Kaya Yuzuki, Matthew O’Neill, Lizzie Phillips, Paris Stangl, Matt Blair, Amy De Bhrún, Akie Kotabe, Robin Crouch

Matt Damon torna a vestire i panni del suo personaggio più famoso Jason Bourne. Paul Greengrass, il regista di The Bourne Supremacy e The Bourne Ultimatum, è nuovamente al fianco di Damon nel nuovo capitolo della saga della Universal Pictures. Dopo essersi vendicato, aver scoperto la sua vera identità e quello che crede essere l’obiettivo dei suoi creatori, Bourne sembra aver trovato un po’ di pace e scompare di scena per sempre… o così sembrava. Ma viene attivato un uovo programma – sviluppato da una struttura di potere globale più intricata e ambigua rispetto al periodo delle super potenze in cui Bourne è stato creato – così viene gettato allo scoperto da una rete molto più funzionale e più pericolosa di qualsiasi singolo governo. L’obiettivo unico di questo agglomerato di potere è quello di utilizzare a proprio favore il terrorismo, la tecnologia e l’insurrezione per portare a termine il suo piano finale. Mentre i suoi inseguitori credono che Bourne si presenterà per farsi ricondizionare se in cambio gli offriranno ciò che più desidera al mondo, l’arma più elitaria che sia mai stata progettata sa una cosa che i suoi inseguitori non riescono ad afferrare: anche i soldati più addestrati difendono gli innocenti dal potere incontrollato.

IMMAGINI



REPORT

General

Unique ID : 115455356641478799172073564952247577429 (0x56DBE49271EAB482AEE551200132AB55)

Complete name : Jason.Bourne.2016.UHD.BluRay.2160p.DTS.iTA.AC3.ENG.Subs.x265-BJL.mkv

Format : Matroska

Format version : Version 2

File size : 13.8 GiB

Duration : 2 h 3 min

Overall bit rate : 16.0 Mb/s

Movie name : Jason Bourne (Greengrass, 2016) – UHD BluRay 2160p [BJL]
Encoded date : UTC 2018-03-02 09:25:27

Writing application : mkvmerge v21.0.0 (‘Tardigrades Will Inherit The Earth’) 64-bit

Writing library : libebml v1.3.5 + libmatroska v1.4.8

Cover : Yes

Attachments : cover front.png / cover res.png

Video

ID : 1

Format : HEVC

Format/Info : High Efficiency Video Coding

Format profile : Main [email protected]@High

Codec ID : V_MPEGH/ISO/HEVC

Duration : 2 h 3 min

Bit rate : 14.6 Mb/s

Width : 3 840 pixels

Height : 1 600 pixels

Display aspect ratio : 2.40:1

Frame rate mode : Constant

Frame rate : 23.976 (24000/1001) FPS

Color space : YUV

Chroma subsampling : 4:2:0 (Type 2)

Bit depth : 10 bits

Bits/(Pixel*Frame) : 0.099

Stream size : 12.5 GiB (91%)

Title : BjL UHD BDRip 2160p [Avg.DRF=22.48]0

Writing library : x265 2.6+49-7219376de42a:[Windows][MSVC 1900][64 bit] 10bit

Encoding settings : cpuid=1173503 / frame-threads=3 / numa-pools=8 / wpp / no-pmode / no-pme / no-psnr / no-ssim / log-level=2 / input-csp=1 / input-res=3840×1600 / interlace=0 / total-frames=0 / level-idc=51 / high-tier=1 / uhd-bd=0 / ref=4 / no-allow-non-conformance / repeat-headers / annexb / no-aud / hrd / info / hash=0 / no-temporal-layers / open-gop / min-keyint=23 / keyint=250 / gop-lookahead=0 / bframes=8 / b-adapt=2 / b-pyramid / bframe-bias=0 / rc-lookahead=25 / lookahead-slices=4 / scenecut=40 / radl=0 / no-intra-refresh / ctu=64 / min-cu-size=8 / rect / no-amp / max-tu-size=32 / tu-inter-depth=1 / tu-intra-depth=1 / limit-tu=0 / rdoq-level=2 / dynamic-rd=0.00 / no-ssim-rd / signhide / no-tskip / nr-intra=0 / nr-inter=0 / no-constrained-intra / no-strong-intra-smoothing / max-merge=3 / limit-refs=3 / limit-modes / me=3 / subme=3 / merange=57 / temporal-mvp / weightp / no-weightb / no-analyze-src-pics / deblock=-3:-3 / no-sao / no-sao-non-deblock / rd=4 / no-early-skip / rskip / no-fast-intra / no-tskip-fast / no-cu-lossless / no-b-intra / no-splitrd-skip / rdpenalty=0 / psy-rd=2.00 / psy-rdoq=1.00 / no-rd-refine / no-lossless / cbqpoffs=0 / crqpoffs=0 / rc=crf / crf=18.0 / qcomp=0.60 / qpstep=4 / stats-write=0 / stats-read=0 / vbv-maxrate=160000 / vbv-bufsize=160000 / vbv-init=0.9 / crf-max=0.0 / crf-min=0.0 / ipratio=1.40 / pbratio=1.30 / aq-mode=3 / aq-strength=0.80 / cutree / zone-count=1 / zones: / start-frame=167290 / end-frame=177175 / qp=25 / no-strict-cbr / qg-size=32 / no-rc-grain / qpmax=69 / qpmin=0 / no-const-vbv / sar=1 / overscan=0 / videoformat=5 / range=0 / colorprim=9 / transfer=16 / colormatrix=9 / chromaloc=1 / chromaloc-top=2 / chromaloc-bottom=2 / display-window=0 / master-display=G(13250,34500)B(7500,3000)R(34000,16000)WP(15635,16450)L(10000000,50) / max-cll=960,105 / min-luma=0 / max-luma=1023 / log2-max-poc-lsb=8 / vui-timing-info / vui-hrd-info / slices=1 / no-opt-qp-pps / no-opt-ref-list-length-pps / no-multi-pass-opt-rps / scenecut-bias=0.05 / no-opt-cu-delta-qp / no-aq-motion / hdr / hdr-opt / no-dhdr10-opt / analysis-reuse-level=5 / scale-factor=0 / refine-intra=0 / refine-inter=0 / refine-mv=0 / no-limit-sao / ctu-info=0 / no-lowpass-dct / refine-mv-type=0 / copy-pic=1

Default : Yes

Forced : No

Color range : Limited

Color primaries : BT.2020

Transfer characteristics : PQ

Matrix coefficients : BT.2020 non-constant

Mastering display color pri : R: x=0.680000 y=0.320000, G: x=0.265000 y=0.690000, B: x=0.150000 y=0.060000, White point: x=0.312700 y=0.329000

Mastering display luminance : min: 0.0050 cd/m2, max: 1000.0000 cd/m2

Maximum Content Light Level : 960 cd/m2

Maximum Frame-Average Light : 105 cd/m2

Audio #1

ID : 2

Format : DTS

Format/Info : Digital Theater Systems

Mode : 16

Format settings, Endianness : Big

Codec ID : A_DTS

Duration : 2 h 3 min

Bit rate mode : Constant

Bit rate : 768 kb/s

Channel(s) : 6 channels

Channel positions : Front: L C R, Side: L R, LFE

Sampling rate : 48.0 kHz

Frame rate : 93.750 FPS (512 SPF)

Bit depth : 24 bits

Compression mode : Lossy

Stream size : 677 MiB (5%)

Title : Italiano DTS 5.1

Language : Italian

Default : Yes

Forced : No

Audio #2

ID : 3

Format : AC-3

Format/Info : Audio Coding 3

Format settings, Endianness : Big

Codec ID : A_AC3

Duration : 2 h 3 min

Bit rate mode : Constant

Bit rate : 640 kb/s

Channel(s) : 6 channels

Channel positions : Front: L C R, Side: L R, LFE

Sampling rate : 48.0 kHz

Frame rate : 31.250 FPS (1536 SPF)

Bit depth : 16 bits

Compression mode : Lossy

Stream size : 564 MiB (4%)

Title : English AC3 5.1

Language : English

Service kind : Complete Main

Default : No

Forced : No

Text #1

ID : 4

Format : UTF-8

Codec ID : S_TEXT/UTF8

Codec ID/Info : UTF-8 Plain Text

Duration : 2 h 0 min

Bit rate : 4 b/s

Count of elements : 121

Stream size : 3.84 KiB (0%)

Title : Italiano Forced

Language : Italian

Default : Yes

Forced : No

Text #2

ID : 5

Format : UTF-8

Codec ID : S_TEXT/UTF8

Codec ID/Info : UTF-8 Plain Text

Duration : 2 h 2 min

Bit rate : 37 b/s

Count of elements : 1111

Stream size : 33.1 KiB (0%)

Title : Italiano Normal

Language : Italian

Default : No

Forced : No

Text #3

ID : 6

Format : UTF-8

Codec ID : S_TEXT/UTF8

Codec ID/Info : UTF-8 Plain Text

Duration : 1 h 53 min

Bit rate : 42 b/s

Count of elements : 1244

Stream size : 35.1 KiB (0%)

Title : English SDH

Language : English

Default : No

Forced : No

Text #4

ID : 7

Format : PGS

Codec ID : S_HDMV/PGS

Codec ID/Info : Picture based subtitle format used on BDs/HD-DVDs

Duration : 2 h 0 min

Bit rate : 3 178 b/s

Count of elements : 242

Stream size : 2.74 MiB (0%)

Title : Italiano Forced [sup]
Language : Italian

Default : No

Forced : No

Text #5

ID : 8

Format : PGS

Codec ID : S_HDMV/PGS

Codec ID/Info : Picture based subtitle format used on BDs/HD-DVDs

Duration : 2 h 2 min

Bit rate : 23.9 kb/s

Count of elements : 2222

Stream size : 20.9 MiB (0%)

Title : Italiano Normal [sup]
Language : Italian

Default : No

Forced : No

Text #6

ID : 9

Format : PGS

Codec ID : S_HDMV/PGS

Codec ID/Info : Picture based subtitle format used on BDs/HD-DVDs

Duration : 1 h 53 min

Bit rate : 29.1 kb/s

Count of elements : 2488

Stream size : 23.5 MiB (0%)

Title : English SDH [sup]
Language : English

Default : No

Forced : No

Menu

00:00:00.000 : :00:00:00.000

00:04:04.661 : :00:04:04.661

00:08:21.543 : :00:08:21.543

00:13:32.687 : :00:13:32.687

00:18:28.316 : :00:18:28.316

00:24:07.237 : :00:24:07.237

00:29:21.259 : :00:29:21.259

00:36:15.548 : :00:36:15.548

00:42:20.663 : :00:42:20.663

00:48:22.441 : :00:48:22.441

00:55:12.184 : :00:55:12.184

01:01:09.666 : :01:01:09.666

01:08:32.483 : :01:08:32.483

01:16:23.329 : :01:16:23.329

01:24:45.330 : :01:24:45.330

01:29:06.550 : :01:29:06.550

01:37:52.909 : :01:37:52.909

01:44:26.343 : :01:44:26.343

01:48:03.727 : :01:48:03.727

01:54:01.209 : :01:54:01.209

GOOD DOWNLOAD

Jason.Bourne.2016.UHD.BluRay.Download Torrent Magnet

#JasonBourne2016UHDBluRay