Jarhead.2005.1080p.BluRay.[Or Full Torrent Magnet Download

Download Torrent Jarhead.2005.1080p.BluRay.[Or Movie Full in HD Result. Movie Jarhead.2005.1080p.BluRay.[Or Torrent Download full. Movie Jarhead.2005.1080p.BluRay.[Or torrent Magnet Download Full. Jarhead.2005.1080p.BluRay.[Or Full Movie Torrent Download And Magnet Download For your PC And Mobiles. Latest Movie Jarhead.2005.1080p.BluRay.[Or Download Link In Bottom.

Torrent And Magnet Links Below

Jarhead.2005.1080p.BluRay.[Org.DDP5.1-Hindi+DDP5.1-English].MSubs.HEVC~The.PunisheR.mkv

MediaInfos:
General

Unique ID                                : 103793942832053483830881427965404684206 (0x4E15FC7B2EE7EFD4E263556218229FAE)

Complete name                            : Jarhead.2005.1080p.BluRay.[Org.DDP5.1-Hindi+DDP5.1-English].MSubs.HEVC~The.PunisheR.mkv

Format                                   : Matroska

Format version                           : Version 4 / Version 2

File size                                : 3.35 GiB

Duration                                 : 2 h 2 min

Overall bit rate                         : 3 900 kb/s

Description                              : Encoded By – The.PunisheR

Encoded date                             : UTC 2021-04-21 11:43:39

Writing application                      : mkvmerge v56.1.0 (‘My Friend’) 64-bit

Writing library                          : libebml v1.4.2 + libmatroska v1.6.4 / Lavf57.83.100

Video

ID                                       : 1

Format                                   : HEVC

Format/Info                              : High Efficiency Video Coding

Format profile                           : [email protected]@Main

Codec ID                                 : V_MPEGH/ISO/HEVC

Duration                                 : 2 h 2 min

Bit rate                                 : 2 620 kb/s

Width                                    : 1 920 pixels

Height                                   : 816 pixels

Display aspect ratio                     : 2.35:1

Frame rate mode                          : Constant

Frame rate                               : 23.976 (24000/1001) FPS

Color space                              : YUV

Chroma subsampling                       : 4:2:0

Bit depth                                : 8 bits

Bits/(Pixel*Frame)                       : 0.070

Stream size                              : 2.25 GiB (67%)

Title                                    : 1080p / BluRay / HEVC ~ The.PunisheR

Language                                 : English

Default                                  : Yes

Forced                                   : No

Color range                              : Limited

Color primaries                          : BT.709

Transfer characteristics                 : BT.709

Matrix coefficients                      : BT.709

Audio #1

ID                                       : 2

Format                                   : E-AC-3

Format/Info                              : Enhanced Audio Coding 3

Codec ID                                 : A_EAC3

Duration                                 : 2 h 2 min

Bit rate mode                            : Constant

Bit rate                                 : 640 kb/s

Channel(s)                               : 6 channels

Channel positions                        : Front: L C R, Side: L R, LFE

Sampling rate                            : 48.0 kHz

Frame rate                               : 187.500 FPS (256 SPF)

Compression mode                         : Lossy

Delay relative to video                  : 1 s 525 ms

Stream size                              : 562 MiB (16%)

Title                                    : Org. NF / DD+ 5.1 / 640kbps / 48kHz ~ The.PunisheR

Language                                 : Hindi

Service kind                             : Complete Main

Default                                  : Yes

Forced                                   : Yes

Audio #2

ID                                       : 3

Format                                   : E-AC-3

Format/Info                              : Enhanced Audio Coding 3

Codec ID                                 : A_EAC3

Duration                                 : 2 h 2 min

Bit rate mode                            : Constant

Bit rate                                 : 640 kb/s

Channel(s)                               : 6 channels

Channel positions                        : Front: L C R, Side: L R, LFE

Sampling rate                            : 48.0 kHz

Frame rate                               : 187.500 FPS (256 SPF)

Compression mode                         : Lossy

Stream size                              : 562 MiB (16%)

Title                                    : DD+ 5.1 / 640kbps / 48kHz ~ The.PunisheR

Language                                 : English

Service kind                             : Complete Main

Default                                  : No

Forced                                   : No

Text #1

ID                                       : 4

Format                                   : ASS

Codec ID                                 : S_TEXT/ASS

Codec ID/Info                            : Advanced Sub Station Alpha

Duration                                 : 2 h 1 min

Bit rate                                 : 117 b/s

Count of elements                        : 1757

Compression mode                         : Lossless

Stream size                              : 105 KiB (0%)

Title                                    : SubStation Alpha – English

Language                                 : English

Default                                  : No

Forced                                   : No

Text #2

ID                                       : 5

Format                                   : UTF-8

Codec ID                                 : S_TEXT/UTF8

Codec ID/Info                            : UTF-8 Plain Text

Duration                                 : 2 h 1 min

Bit rate                                 : 77 b/s

Count of elements                        : 1857

Stream size                              : 69.3 KiB (0%)

Title                                    : English-SRT

Language                                 : English

Default                                  : No

Forced                                   : No

Text #3

ID                                       : 6

Format                                   : UTF-8

Codec ID                                 : S_TEXT/UTF8

Codec ID/Info                            : UTF-8 Plain Text

Duration                                 : 1 h 53 min

Bit rate                                 : 146 b/s

Count of elements                        : 1577

Stream size                              : 121 KiB (0%)

Title                                    : Hindi-SRT

Language                                 : Hindi

Default                                  : No

Forced                                   : No

Text #4

ID                                       : 7

Format                                   : UTF-8

Codec ID                                 : S_TEXT/UTF8

Codec ID/Info                            : UTF-8 Plain Text

Duration                                 : 1 h 53 min

Bit rate                                 : 97 b/s

Count of elements                        : 1568

Stream size                              : 80.6 KiB (0%)

Title                                    : Arabic

Language                                 : Arabic

Default                                  : No

Forced                                   : No

Screenshots:





Quote:


If You Have Good Bandwidth Please Seed This Torrent For Atleast 24 Hours or As much as you can

Enjoy 😀

Jarhead.2005.1080p.BluRay.[OrDownload Torrent Magnet

#Jarhead20051080pBluRayOr