Jaanu.2020.720p.TRUE.Web-DL.A Full Torrent Magnet Download

Download Torrent Jaanu.2020.720p.TRUE.Web-DL.A Movie Full in HD Result. Movie Jaanu.2020.720p.TRUE.Web-DL.A Torrent Download full. Movie Jaanu.2020.720p.TRUE.Web-DL.A torrent Magnet Download Full. Jaanu.2020.720p.TRUE.Web-DL.A Full Movie Torrent Download And Magnet Download For your PC And Mobiles. Latest Movie Jaanu.2020.720p.TRUE.Web-DL.A Download Link In Bottom.

Torrent And Magnet Links Below

Jaanu.2020.720p.TRUE.Web-DL.AVC.Dual.Audio.[Telugu.DD+.5.1.].[Hindi.DD.2.0.384Kbps].By.~KyoGo~

Video

ID                                       : 1

Format                                   : AVC

Format/Info                              : Advanced Video Codec

Format profile                           : [email protected]
Format settings                          : CABAC / 5 Ref Frames

Format settings, CABAC                   : Yes

Format settings, Reference frames        : 5 frames

Codec ID                                 : V_MPEG4/ISO/AVC

Duration                                 : 2 h 30 min

Bit rate                                 : 1 451 kb/s

Width                                    : 1 280 pixels

Height                                   : 544 pixels

Display aspect ratio                     : 2.35:1

Original display aspect ratio            : 2.35:1

Frame rate mode                          : Constant

Frame rate                               : 24.000 FPS

Color space                              : YUV

Chroma subsampling                       : 4:2:0

Bit depth                                : 8 bits

Scan type                                : Progressive

Bits/(Pixel*Frame)                       : 0.087

Stream size                              : 1.53 GiB (59%)

Language                                 : Telugu

Default                                  : Yes

Forced                                   : No

Color range                              : Limited

Color primaries                          : BT.709

Transfer characteristics                 : BT.709

Matrix coefficients                      : BT.709

Audio #1

ID                                       : 2

Format                                   : E-AC-3

Format/Info                              : Enhanced AC-3

Commercial name                          : Dolby Digital Plus

Codec ID                                 : A_EAC3

Duration                                 : 2 h 30 min

Bit rate mode                            : Constant

Bit rate                                 : 640 kb/s

Channel(s)                               : 6 channels

Channel layout                           : L R C LFE Ls Rs

Sampling rate                            : 48.0 kHz

Frame rate                               : 31.250 FPS (1536 SPF)

Compression mode                         : Lossy

Stream size                              : 690 MiB (26%)

Language                                 : Telugu

Service kind                             : Complete Main

Default                                  : No

Forced                                   : No

Audio #2

ID                                       : 3

Format                                   : AC-3

Format/Info                              : Audio Coding 3

Commercial name                          : Dolby Digital

Codec ID                                 : A_AC3

Duration                                 : 2 h 30 min

Bit rate mode                            : Constant

Bit rate                                 : 384 kb/s

Channel(s)                               : 2 channels

Channel layout                           : L R

Sampling rate                            : 48.0 kHz

Frame rate                               : 31.250 FPS (1536 SPF)

Compression mode                         : Lossy

Stream size                              : 414 MiB (16%)

Language                                 : Hindi

Service kind                             : Complete Main

Default                                  : Yes

Forced                                   : Yes

Text

ID                                       : 4

Format                                   : UTF-8

Codec ID                                 : S_TEXT/UTF8

Codec ID/Info                            : UTF-8 Plain Text

Duration                                 : 2 h 26 min

Bit rate                                 : 56 b/s

Count of elements                        : 1879

Stream size                              : 60.7 KiB (0%)

Language                                 : English

Default                                  : Yes

Forced                                   : No




Code:

Hindi Untouched Audio Source Goldmine Telefilms

Telugu Untouched Audio Source TMV

Thanks to TMV For Telugu Print & KyoGo for Hindi audio

Note: Hindi version have some scene cuts , also on Hindi version some songs are removed and others were replaced with Instrumantal version of the song, So I added all the songs, and Telugu audio’s volume was lower than Hindi thats why I applied dB gain for Telugu scenes for perfect match with Hindi Audio

Jaanu.2020.720p.TRUE.Web-DL.ADownload Torrent Magnet

#Jaanu2020720pTRUEWebDLA