Itinéraire d’un enfant gâté ( Full Torrent Magnet Download

Download Torrent Itinéraire d’un enfant gâté ( Movie Full in HD Result. Movie Itinéraire d’un enfant gâté ( Torrent Download full. Movie Itinéraire d’un enfant gâté ( torrent Magnet Download Full. Itinéraire d’un enfant gâté ( Full Movie Torrent Download And Magnet Download For your PC And Mobiles. Latest Movie Itinéraire d’un enfant gâté ( Download Link In Bottom.

Torrent And Magnet Links Below

IMDB

Code:


General

Complete name : Itinéraire.d’un.enfant.gâté.(1988).BDRip.(720×306).AC3.[Borsalino].EN.srt

Format : SubRip

File size : 80.1 KiB

Text

Format : SubRip

Compression mode : Lossless

General

Complete name : Itinéraire.d’un.enfant.gâté.(1988).BDRip.(720×306).AC3.[Borsalino].NL.srt

Format : SubRip

File size : 85.8 KiB

Text

Format : SubRip

Compression mode : Lossless

General

Complete name : Itinéraire.d’un.enfant.gâté.(1988).BDRip.(720×306).AC3.[Borsalino].mkv

Format : Matroska

Format version : Version 4

File size : 1.53 GiB

Duration : 2 h 6 min

Overall bit rate : 1 739 kb/s

Movie name : Itinéraire.d’un.enfant.gâté.(1988).BDRip.(720×306).AC3.[Borsalino]
Writing application : mkvmerge v56.1.0 (‘My Friend’) 64-bit

Writing library : libebml v1.4.2 + libmatroska v1.6.4

Video

ID : 1

Format : AVC

Format/Info : Advanced Video Codec

Format profile : [email protected]
Format settings : CABAC / 4 Ref Frames

Format settings, CABAC : Yes

Format settings, Reference frames : 4 frames

Format settings, GOP : M=3, N=30

Muxing mode : Container [email protected]
Codec ID : V_MPEG4/ISO/AVC

Duration : 2 h 6 min

Bit rate : 1 417 kb/s

Width : 720 pixels

Height : 306 pixels

Display aspect ratio : 2.35:1

Frame rate mode : Constant

Frame rate : 24.000 FPS

Color space : YUV

Chroma subsampling : 4:2:0

Bit depth : 8 bits

Scan type : Progressive

Bits/(Pixel*Frame) : 0.268

Stream size : 1.25 GiB (81%)

Title : French

Language : French

Default : Yes

Forced : No

Audio

ID : 2

Format : AAC LC

Format/Info : Advanced Audio Codec Low Complexity

Codec ID : A_AAC-2

Duration : 2 h 6 min

Bit rate : 320 kb/s

Channel(s) : 6 channels

Channel layout : C L R Ls Rs LFE

Sampling rate : 48.0 kHz

Frame rate : 46.875 FPS (1024 SPF)

Compression mode : Lossy

Stream size : 289 MiB (18%)

Title : French

Language : French

Default : Yes

Forced : No

Spoken language

Subtitles (srt files)










Itinéraire d’un enfant gâté (Download Torrent Magnet

#Itinéraire #dun #enfant #gâté