Invincible – S01.E07 – We Nee Full Torrent Magnet Download

Download Torrent Invincible – S01.E07 – We Nee Movie Full in HD Result. Movie Invincible – S01.E07 – We Nee Torrent Download full. Movie Invincible – S01.E07 – We Nee torrent Magnet Download Full. Invincible – S01.E07 – We Nee Full Movie Torrent Download And Magnet Download For your PC And Mobiles. Latest Movie Invincible – S01.E07 – We Nee Download Link In Bottom.

Torrent And Magnet Links Below

Screenshot’s

Media Information

Code:

General

Unique ID : 270979948319010333924272507005333211696 (0xCBDCD6F53E2AC0005B485D4098C10A30)

Complete name : Invincible – S01.E07 – We Need To Talk 1080p AMZN WebRip x265 DDP 5.1 Kira [SEV].mkv

Format : Matroska

Format version : Version 4

File size : 781 MiB

Duration : 48 min 34 s

Overall bit rate : 2 247 kb/s

Movie name : Invincible : S01.E07 : We Need To Talk

Encoded date : UTC 2021-04-24 03:04:24

Writing application : mkvmerge v56.1.0 (‘My Friend’) 64-bit

Writing library : libebml v1.4.2 + libmatroska v1.6.4

Video

ID : 1

Format : HEVC

Format/Info : High Efficiency Video Coding

Format profile : Main [email protected]@Main

Codec ID : V_MPEGH/ISO/HEVC

Duration : 48 min 34 s

Bit rate : 1 601 kb/s

Width : 1 920 pixels

Height : 1 080 pixels

Display aspect ratio : 16:9

Frame rate mode : Constant

Frame rate : 24.000 FPS

Color space : YUV

Chroma subsampling : 4:2:0

Bit depth : 10 bits

Bits/(Pixel*Frame) : 0.032

Stream size : 556 MiB (71%)

Title : Invincible : S01.E07 : We Need To Talk

Writing library : x265 3.5+9-bf91444e0:[Windows][MSVC 1928][64 bit] 10bit

Encoding settings : cpuid=1111039 / frame-threads=2 / numa-pools=4 / wpp / no-pmode / no-pme / no-psnr / no-ssim / log-level=2 / input-csp=1 / input-res=1920×1080 / interlace=0 / total-frames=69942 / level-idc=0 / high-tier=1 / uhd-bd=0 / ref=4 / no-allow-non-conformance / no-repeat-headers / annexb / no-aud / no-eob / no-eos / no-hrd / info / hash=0 / no-temporal-layers / open-gop / min-keyint=24 / keyint=250 / gop-lookahead=0 / bframes=8 / b-adapt=0 / b-pyramid / bframe-bias=0 / rc-lookahead=100 / lookahead-slices=4 / scenecut=40 / hist-scenecut=0 / radl=0 / no-splice / no-intra-refresh / ctu=64 / min-cu-size=8 / no-rect / no-amp / max-tu-size=32 / tu-inter-depth=1 / tu-intra-depth=1 / limit-tu=0 / rdoq-level=2 / dynamic-rd=0.00 / no-ssim-rd / signhide / no-tskip / nr-intra=0 / nr-inter=0 / no-constrained-intra / no-strong-intra-smoothing / max-merge=3 / limit-refs=3 / limit-modes / me=3 / subme=7 / merange=92 / temporal-mvp / no-frame-dup / no-hme / weightp / no-weightb / no-analyze-src-pics / deblock=0:0 / sao / no-sao-non-deblock / rd=4 / selective-sao=4 / no-early-skip / rskip / no-fast-intra / no-tskip-fast / no-cu-lossless / no-b-intra / no-splitrd-skip / rdpenalty=0 / psy-rd=1.30 / psy-rdoq=1.00 / no-rd-refine / no-lossless / cbqpoffs=0 / crqpoffs=0 / rc=abr / bitrate=1600 / qcomp=0.60 / qpstep=4 / stats-write=0 / stats-read=2 / cplxblur=20.0 / qblur=0.5 / ipratio=1.40 / pbratio=1.30 / aq-mode=3 / aq-strength=1.10 / cutree / zone-count=0 / no-strict-cbr / qg-size=32 / no-rc-grain / qpmax=69 / qpmin=0 / no-const-vbv / sar=0 / overscan=0 / videoformat=5 / range=0 / colorprim=2 / transfer=2 / colormatrix=2 / chromaloc=0 / display-window=0 / cll=0,0 / min-luma=0 / max-luma=1023 / log2-max-poc-lsb=8 / vui-timing-info / vui-hrd-info / slices=1 / no-opt-qp-pps / no-opt-ref-list-length-pps / no-multi-pass-opt-rps / scenecut-bias=0.05 / hist-threshold=0.03 / no-opt-cu-delta-qp / no-aq-motion / no-hdr10 / no-hdr10-opt / no-dhdr10-opt / no-idr-recovery-sei / analysis-reuse-level=0 / analysis-save-reuse-level=0 / analysis-load-reuse-level=0 / scale-factor=0 / refine-intra=0 / refine-inter=0 / refine-mv=1 / refine-ctu-distortion=0 / no-limit-sao / ctu-info=0 / no-lowpass-dct / refine-analysis-type=0 / copy-pic=1 / max-ausize-factor=1.0 / no-dynamic-refine / no-single-sei / no-hevc-aq / no-svt / no-field / qp-adaptation-range=1.00 / scenecut-aware-qp=0conformance-window-offsets / right=0 / bottom=0 / decoder-max-rate=0 / no-vbv-live-multi-pass

Language : English

Default : Yes

Forced : No

Audio

ID : 2

Format : E-AC-3

Format/Info : Enhanced AC-3

Commercial name : Dolby Digital Plus

Codec ID : A_EAC3

Duration : 48 min 34 s

Bit rate mode : Constant

Bit rate : 640 kb/s

Channel(s) : 6 channels

Channel layout : L R C LFE Ls Rs

Sampling rate : 48.0 kHz

Frame rate : 31.250 FPS (1536 SPF)

Compression mode : Lossy

Stream size : 222 MiB (28%)

Title : English E-AC-3 DDP 5.1 @ 640 Kbps

Language : English

Service kind : Complete Main

Default : Yes

Forced : No

Text #1

ID : 3

Format : UTF-8

Codec ID : S_TEXT/UTF8

Codec ID/Info : UTF-8 Plain Text

Duration : 46 min 58 s

Bit rate : 75 b/s

Count of elements : 1141

Stream size : 26.1 KiB (0%)

Title : English SDH SRT

Language : English

Default : Yes

Forced : No

Text #2

ID : 4

Format : UTF-8

Codec ID : S_TEXT/UTF8

Codec ID/Info : UTF-8 Plain Text

Duration : 46 min 57 s

Bit rate : 64 b/s

Count of elements : 909

Stream size : 22.1 KiB (0%)

Title : English SRT

Language : English

Default : No

Forced : No

Text #3

Title : Arabic SRT

Text #4

Title : Danish SRT

Text #5

Title : German SRT

Text #6

Title : Spansih (Latinoamérica) SRT

Text #7

Title : Spanish (España) SRT

Text #8

Title : Finnish SRT

Text #9

Title : Filipino SRT

Text #10

Title : French SRT

Text #11

Title : Hebrew SRT

Text #12

Title : Hindi SRT

Text #13

Title : Indonesian SRT

Text #14

Title : Italian SRT

Text #15

Title : Japanese SRT

Text #16

Title : Korean SRT

Text #17

Title : Malay SRT

Text #18

Title : Norwegian SRT

Text #19

Title : Dutch SRT

Text #20

Title : Polish SRT

Text #21

Title : Portuguese (Brasil) SRT

Text #22

Title : Portuguese (Portugal) SRT

Text #23

Title : Russian SRT

Text #24

Title : Swedish SRT

Text #25

Title : Tamil SRT

Text #26

Title : Telugu SRT

Text #27

Title : Thai SRT

Text #28

Title : Turkish SRT

Text #29

Title : Chinese (简体) SRT

Text #30

Title : Chinese (繁體) SRT

Menu

00:00:00.000 : Amazon Original

00:00:05.000 : Disclaimer

00:00:15.000 : Scene 3

00:01:01.000 : Scene 4

00:01:37.000 : Scene 5

00:01:55.000 : Scene 6

00:02:48.000 : Scene 7

00:04:39.000 : Scene 8

00:06:18.000 : Scene 9

00:08:19.000 : Scene 10

00:10:55.000 : Scene 11

00:12:46.000 : Scene 12

00:13:34.000 : Scene 13

00:13:39.000 : Scene 14

00:14:27.000 : Scene 15

00:21:28.000 : Scene 16

00:23:52.000 : Scene 17

00:24:08.000 : Scene 18

00:25:41.000 : Scene 19

00:26:48.000 : Scene 20

00:28:11.000 : Scene 21

00:31:13.000 : Scene 22

00:32:59.000 : Scene 23

00:33:51.000 : Scene 24

00:37:56.000 : Scene 25

00:38:24.000 : Scene 26

00:40:28.000 : Scene 27

00:42:07.000 : Scene 28

00:43:37.000 : Scene 29

00:47:21.000 : End Credits

Source Information

Code:

Invincible.2021.S01E07.We.Need.To.Talk.1080p.AMZN.WEB-DL.DDP5.1.H.264-NTb (1.36 GB)

We have no issue with individuals posting or re-uploading our torrents on a platform we aren’t on. However, if this is something you’d like to do, please do so in a ‘as-is’ format. We ask that you do not create a new torrent, include all descriptions you see above including the SEV logo, tags, notes and screenshots. If you’d like to become a permanent poster on a website we don’t post to, feel free to get in contact with a Sublime Encoded Video member.

We are recruiting/training new members for SEV & seedbox providers as well as people to help out with subtitles.

As you already know, we deliver quality, so you know the standard.

If you’re interested, feel free to contact any of the team members.

Invincible – S01.E07 – We NeeDownload Torrent Magnet

#Invincible #S01E07 #Nee