Inside No. 9 S06E03 Lip Servi Full Torrent Magnet Download

Download Torrent Inside No. 9 S06E03 Lip Servi Movie Full in HD Result. Movie Inside No. 9 S06E03 Lip Servi Torrent Download full. Movie Inside No. 9 S06E03 Lip Servi torrent Magnet Download Full. Inside No. 9 S06E03 Lip Servi Full Movie Torrent Download And Magnet Download For your PC And Mobiles. Latest Movie Inside No. 9 S06E03 Lip Servi Download Link In Bottom.

Torrent And Magnet Links Below

Inside No. 9 S06E03 Lip Service (1280x720p HD, 50fps, soft Eng subs)

Felix is pretty certain his wife is up to something with her boss Dmitri, so he decides to hire some help to prove things one way or the other. When professional lip-reader Iris arrives with her powerful binoculars, the couple stake out a hotel bedroom and start to gather their evidence.

First broadcast: 24 May 2021

Duration: 30 minutes

Torrent dead? Request reseed at torrentgalaxy.org – or ask at elsonroa at tutanota.com

Media info:-

General

Format : MPEG-4

Format profile : Base Media

Codec ID : isom (isom/iso2/avc1/mp41)

File size : 775 MiB

Duration : 29mn 7s

Overall bit rate : 3 721 Kbps

Video

ID : 1

Format : AVC

Format/Info : Advanced Video Codec

Format profile : [email protected]
Format settings, CABAC : Yes

Format settings, ReFrames : 4 frames

Codec ID : avc1

Codec ID/Info : Advanced Video Coding

Duration : 29mn 7s

Bit rate : 3 585 Kbps

Width : 1 280 pixels

Height : 720 pixels

Display aspect ratio : 16:9

Frame rate mode : Constant

Frame rate : 50.000 fps

Color space : YUV

Chroma subsampling : 4:2:0

Bit depth : 8 bits

Scan type : Progressive

Bits/(Pixel*Frame) : 0.078

Stream size : 747 MiB (96%)

Encoded date : UTC 1904-01-01 00:00:00

Tagged date : UTC 1904-01-01 00:00:00

Color range : Limited

Color primaries : BT.709

Transfer characteristics : BT.709

Matrix coefficients : BT.709

Audio

ID : 2

Format : AAC

Format/Info : Advanced Audio Codec

Format profile : LC

Codec ID : 40

Duration : 29mn 7s

Bit rate mode : Constant

Bit rate : 128 Kbps

Channel(s) : 2 channels

Channel positions : Front: L R

Sampling rate : 48.0 KHz

Frame rate : 46.875 fps (1024 spf)

Compression mode : Lossy

Stream size : 26.7 MiB (3%)

Language : English

Inside No. 9 S06E03 Lip ServiDownload Torrent Magnet

#S06E03 #Lip #Servi