Inglourious Basterds (2009) [ Full Torrent Magnet Download

Download Torrent Inglourious Basterds (2009) [ Movie Full in HD Result. Movie Inglourious Basterds (2009) [ Torrent Download full. Movie Inglourious Basterds (2009) [ torrent Magnet Download Full. Inglourious Basterds (2009) [ Full Movie Torrent Download And Magnet Download For your PC And Mobiles. Latest Movie Inglourious Basterds (2009) [ Download Link In Bottom.

Torrent And Magnet Links Below

Quote:

PLEASE SEED TO MAINTAIN A BALANCED SEEDER:LEECHER RATIO.

Download the higher quality version encoded from a better source here:
Inglourious Basterds [HQ] [BluRay UHD 1080p 10bit DD5.1 x265 – Thakur]






Code:


MEDIAINFO:

General

Format                                   : Matroska

Format version                           : Version 4

File size                                : 1.97 GiB

Duration                                 : 2 h 32 min

Overall bit rate                         : 1 845 kb/s

Movie name                               : Inglourious Basterds (2009) [UHD BluRay 1080p 10bit DD5.1 x265] – Encoded by Thakur

Cover                                    : Yes

Attachments                              : cover.jpg

Video

ID                                       : 1

Format                                   : HEVC

Format/Info                              : High Efficiency Video Coding

Format profile                           : Main [email protected]@High

Codec ID                                 : V_MPEGH/ISO/HEVC

Duration                                 : 2 h 32 min

Bit rate                                 : 1 448 kb/s

Width                                    : 1 920 pixels

Height                                   : 800 pixels

Display aspect ratio                     : 2.40:1

Frame rate mode                          : Constant

Frame rate                               : 23.976 (24000/1001) FPS

Color space                              : YUV

Chroma subsampling                       : 4:2:0

Bit depth                                : 10 bits

Bits/(Pixel*Frame)                       : 0.039

Stream size                              : 1.55 GiB (79%)

Title                                    : Encoded by Thakur

Writing library                          : x265 3.2+5-gfbe9fef31:[Windows][GCC 9.2.0][64 bit] 10bit

Encoding settings                        : cpuid=1111039 / frame-threads=3 / numa-pools=8 / wpp / no-pmode / no-pme / no-psnr / no-ssim / log-level=2 / input-csp=1 / input-res=1920×800 / interlace=0 / total-frames=220087 / level-idc=40 / high-tier=1 / uhd-bd=0 / ref=3 / no-allow-non-conformance / repeat-headers / annexb / aud / hrd / info / hash=0 / no-temporal-layers / no-open-gop / min-keyint=24 / keyint=240 / gop-lookahead=0 / bframes=4 / b-adapt=2 / b-pyramid / bframe-bias=0 / rc-lookahead=25 / lookahead-slices=4 / scenecut=40 / radl=0 / no-splice / no-intra-refresh / ctu=64 / min-cu-size=8 / no-rect / no-amp / max-tu-size=32 / tu-inter-depth=1 / tu-intra-depth=1 / limit-tu=0 / rdoq-level=2 / dynamic-rd=0.00 / no-ssim-rd / signhide / no-tskip / nr-intra=0 / nr-inter=0 / no-constrained-intra / no-strong-intra-smoothing / max-merge=3 / limit-refs=1 / limit-modes / me=1 / subme=3 / merange=35 / temporal-mvp / no-hme / weightp / no-weightb / no-analyze-src-pics / deblock=-3:-3 / no-sao / no-sao-non-deblock / rd=4 / selective-sao=0 / early-skip / rskip / no-fast-intra / no-tskip-fast / no-cu-lossless / b-intra / no-splitrd-skip / rdpenalty=0 / psy-rd=2.00 / psy-rdoq=0.00 / no-rd-refine / no-lossless / cbqpoffs=0 / crqpoffs=0 / rc=crf / crf=23.25 / qcomp=0.60 / qpstep=4 / stats-write=0 / stats-read=0 / vbv-maxrate=18000 / vbv-bufsize=17500 / vbv-init=0.9 / crf-max=0.0 / crf-min=0.0 / ipratio=1.40 / pbratio=1.30 / aq-mode=2 / aq-strength=1.00 / cutree / zone-count=0 / no-strict-cbr / qg-size=32 / no-rc-grain / qpmax=69 / qpmin=0 / no-const-vbv / sar=0 / overscan=0 / videoformat=5 / range=0 / colorprim=1 / transfer=2 / colormatrix=1 / chromaloc=0 / display-window=0 / cll=0,0 / min-luma=0 / max-luma=1023 / log2-max-poc-lsb=8 / vui-timing-info / vui-hrd-info / slices=1 / no-opt-qp-pps / no-opt-ref-list-length-pps / no-multi-pass-opt-rps / scenecut-bias=0.05 / no-opt-cu-delta-qp / no-aq-motion / no-hdr / no-hdr-opt / no-dhdr10-opt / no-idr-recovery-sei / analysis-reuse-level=5 / scale-factor=0 / refine-intra=0 / refine-inter=0 / refine-mv=1 / refine-ctu-distortion=0 / no-limit-sao / ctu-info=0 / no-lowpass-dct / refine-analysis-type=0 / copy-pic=1 / max-ausize-factor=1.0 / no-dynamic-refine / no-single-sei / no-hevc-aq / no-svt / no-field / qp-adaptation-range=1.00

Default                                  : Yes

Forced                                   : No

Color range                              : Limited

Color primaries                          : BT.709

Matrix coefficients                      : BT.709

Audio

ID                                       : 2

Format                                   : AC-3

Format/Info                              : Audio Coding 3

Commercial name                          : Dolby Digital

Codec ID                                 : A_AC3

Duration                                 : 2 h 32 min

Bit rate mode                            : Constant

Bit rate                                 : 384 kb/s

Channel(s)                               : 6 channels

Channel layout                           : L R C LFE Ls Rs

Sampling rate                            : 48.0 kHz

Frame rate                               : 31.250 FPS (1536 SPF)

Compression mode                         : Lossy

Stream size                              : 420 MiB (21%)

Title                                    : Dolby Digital 5.1 384kbps – Encoded by Thakur

Language                                 : English

Service kind                             : Complete Main

Default                                  : No

Forced                                   : No

Text #1

ID                                       : 3

Format                                   : PGS

Muxing mode                              : zlib

Codec ID                                 : S_HDMV/PGS

Codec ID/Info                            : Picture based subtitle format used on BDs/HD-DVDs

Duration                                 : 2 h 27 min

Bit rate                                 : 20.9 kb/s

Count of elements                        : 1682

Stream size                              : 22.0 MiB (1%)

Title                                    : PGS – Encoded by Thakur

Language                                 : English

Default                                  : Yes

Forced                                   : No

Text #2

ID                                       : 4

Format                                   : UTF-8

Codec ID                                 : S_TEXT/UTF8

Codec ID/Info                            : UTF-8 Plain Text

Duration                                 : 2 h 27 min

Bit rate                                 : 31 b/s

Count of elements                        : 841

Stream size                              : 33.5 KiB (0%)

Title                                    : SRT – Encoded by Thakur

Language                                 : English

Default                                  : No

Forced                                   : No

Menu

00:00:00.000                             : en:Main Titles

00:01:50.610                             : en:Chapter One: Once Upon a Time in Nazi-Occupied France

00:07:06.384                             : en:If a Rat Were to Walk In

00:21:20.821                             : en:Chapter Two: Inglourious Basterds

00:24:12.826                             : en:Nein

00:28:15.902                             : en:Hugo Stiglitz

00:30:18.942                             : en:The Bear Jew

00:37:57.108                             : en:Chapter Three: German Night in Paris

00:41:47.922                             : en:Fredrick Zoller

00:48:28.405                             : en:Lunch with Goebbels

00:53:53.563                             : en:Apple Strudel & Creme Fraiche

01:00:50.438                             : en:A Film Just for the Nazis

01:04:05.341                             : en:Chapter Four: Operation Kino

01:09:24.702                             : en:Fightin’ in a Basement

01:12:17.166                             : en:La Louisiane

01:19:25.927                             : en:Say Auf Wiedersehen to Your Nazi Balls

01:32:54.777                             : en:A Mexican Standoff

01:37:02.233                             : en:It’s Called Suspicious

01:43:51.475                             : en:Detective Landa

01:45:38.040                             : en:Chapter Five: Revenge of the Giant Face

01:50:30.624                             : en:Italian Escorts

01:57:35.089                             : en:If the Show Fits

02:03:38.452                             : en:That’s A Bingo

02:10:30.072                             : en:Nation’s Pride

02:16:40.859                             : en:Fredrick Calls on Shosanna

02:23:10.748                             : en:This Is the Face of Jewish Vengeance

02:25:47.280                             : en:Aldo’s Masterpiece

02:29:30.962                             : en:End Titles

Inglourious Basterds (2009) [Download Torrent Magnet

#Inglourious #Basterds