Indiana Jones and the Raiders Full Torrent Magnet Download

Download Torrent Indiana Jones and the Raiders Movie Full in HD Result. Movie Indiana Jones and the Raiders Torrent Download full. Movie Indiana Jones and the Raiders torrent Magnet Download Full. Indiana Jones and the Raiders Full Movie Torrent Download And Magnet Download For your PC And Mobiles. Latest Movie Indiana Jones and the Raiders Download Link In Bottom.

Torrent And Magnet Links Below

All details of changes made to the Raiders of the Lost Ark (1981) blu-ray can be found in the torrent file listing.

The 2 channel PCM audio from the laserdisc has also been included as an additional track in this release, as well as the DTS-HD 5.1 audio track from the blu-ray, English and Spanish subtitles and chapter listings.

Here are some screencap comparisons:

Blu-ray 1:

   

Regraded 1:

   

Blu-ray 2:

   

Regraded 2:

   

Blu-ray 3:

   

Regraded 3:

   

Blu-ray 4:

   

Regraded 4:

   

Video

ID                             : 1

Format                         : AVC

Format/Info                    : Advanced Video Codec

Format profile                 : [email protected]
Format settings, CABAC         : Yes

Format settings, RefFrames     : 4 frames

Codec ID                       : V_MPEG4/ISO/AVC

Duration                       : 1 h 55 min

Bit rate mode                  : Variable

Bit rate                       : 23.5 Mb/s

Maximum bit rate               : 33.0 Mb/s

Width                          : 1 920 pixels

Height                         : 816 pixels

Audio #1

ID                             : 2

Format                         : DTS

Format/Info                    : Digital Theater Systems

Format profile                 : MA / Core

Mode                           : 16

Format settings, Endianness    : Big

Codec ID                       : A_DTS

Duration                       : 1 h 55 min

Bit rate mode                  : Variable / Constant

Bit rate                       : 3 840 kb/s / 1 509 kb/s

Channel(s)                     : 6 channels

Channel positions              : Front: L C R, Side: L R, LFE

Sampling rate                  : 48.0 kHz

Frame rate                     : 93.750 FPS (512 SPF)

Bit depth                      : 24 bits

Compression mode               : Lossless / Lossy

Stream size                    : 3.07 GiB (13%)

Language                       : English

Default                        : Yes

Forced                         : No

Audio #2

ID                             : 3

Format                         : PCM

Codec ID                       : A_PCM/INT/LIT

Duration                       : 1 h 55 min

Bit rate mode                  : Constant

Bit rate                       : 1 536 kb/s

Channel(s)                     : 2 channels

Sampling rate                  : 48.0 kHz

Frame rate                     : 32.000 FPS (1500 SPF)

Bit depth                      : 16 bits

Stream size                    : 1.24 GiB (5%)

Language                       : English

Default                        : No

Forced                         : No

Indiana Jones and the RaidersDownload Torrent Magnet

#Indiana #Jones #Raiders