In viaggio con Flora-Saving F Full Torrent Magnet Download

Download Torrent In viaggio con Flora-Saving F Movie Full in HD Result. Movie In viaggio con Flora-Saving F Torrent Download full. Movie In viaggio con Flora-Saving F torrent Magnet Download Full. In viaggio con Flora-Saving F Full Movie Torrent Download And Magnet Download For your PC And Mobiles. Latest Movie In viaggio con Flora-Saving F Download Link In Bottom.

Torrent And Magnet Links Below

Titolo originale: Saving Flora

Regista: Mark Drury Taylor

Anno 2018

Genere: Drammatico

Durata: 1h 35m

Leonor Varela, David Arquette, Jenna Ortega, Rhea Perlman, Tom Arnold, Terry Moore.

Flora è un elefante da circo che non può più eseguire i suoi trucchi. La notte prima che sia programmata l’eutanasia, la figlia quattordicenne del proprietario del circo, Dawn, porta Flora dal circo. Tutto ciò che si frappone tra loro e la sicurezza della riserva degli elefanti sono duecento chilometri di boschi, un fiume impetuoso, due cacciatori di elefanti e la paura di non farcela.

Flora is a circus elephant who can no longer perform her tricks. The night before she’s scheduled to be euthanized, the circus owner’s 14-year old daughter, Dawn, sneaks Flora from the circus. All that stands between them and the safety of the elephant preserve is two hundred kilometers of woods, one raging river, two elephant hunters and the fear of not making it.




General

Unique ID : 29332856283653669841624862861639777967 (0x16114D78F86291CC4B3C62441A037EAF)

Complete name : In viaggio con Flora-Saving Flora (2018) ITA-ENG Ac3 5.1 BDRip 1080p H264 [ArMor].mkv

Format : Matroska

Format version : Version 4

File size : 3.82 GiB

Duration : 1 h 35 min

Overall bit rate : 5 738 kb/s

Encoded date : UTC 2021-01-25 13:51:09

Writing application : mkvmerge v52.0.0 (‘Secret For The Mad’) 64-bit

Writing library : libebml v1.4.1 + libmatroska v1.6.2 / Lavf58.29.100

Video

ID : 1

Format : AVC

Format/Info : Advanced Video Codec

Format profile : [email protected]
Format settings : CABAC / 4 Ref Frames

Format settings, CABAC : Yes

Format settings, Reference frames : 4 frames

Codec ID : V_MPEG4/ISO/AVC

Duration : 1 h 35 min

Bit rate : 5 000 kb/s

Width : 1 920 pixels

Height : 1 080 pixels

Display aspect ratio : 16:9

Frame rate mode : Constant

Frame rate : 23.976 (24000/1001) FPS

Color space : YUV

Chroma subsampling : 4:2:0

Bit depth : 8 bits

Scan type : Progressive

Bits/(Pixel*Frame) : 0.101

Stream size : 3.22 GiB (84%)

Writing library : x264 core 157 r2935 545de2f

Encoding settings : cabac=1 / ref=2 / deblock=1:0:0 / analyse=0x1:0x111 / me=hex / subme=6 / psy=1 / psy_rd=1.00:0.00 / mixed_ref=1 / me_range=16 / chroma_me=1 / trellis=1 / 8x8dct=0 / cqm=0 / deadzone=21,11 / fast_pskip=1 / chroma_qp_offset=-2 / threads=12 / lookahead_threads=2 / sliced_threads=0 / nr=0 / decimate=1 / interlaced=0 / bluray_compat=0 / constrained_intra=0 / bframes=3 / b_pyramid=2 / b_adapt=1 / b_bias=0 / direct=1 / weightb=1 / open_gop=0 / weightp=1 / keyint=240 / keyint_min=24 / scenecut=40 / intra_refresh=0 / rc_lookahead=30 / rc=abr / mbtree=1 / bitrate=5000 / ratetol=1.0 / qcomp=0.60 / qpmin=0 / qpmax=69 / qpstep=4 / vbv_maxrate=50000 / vbv_bufsize=62500 / nal_hrd=none / filler=0 / ip_ratio=1.40 / aq=1:1.00

Default : Yes

Forced : No

Color range : Limited

Color primaries : BT.709

Transfer characteristics : BT.709

Matrix coefficients : BT.709

Audio #1

ID : 2

Format : AC-3

Format/Info : Audio Coding 3

Commercial name : Dolby Digital

Codec ID : A_AC3

Duration : 1 h 35 min

Bit rate mode : Constant

Bit rate : 448 kb/s

Channel(s) : 6 channels

Channel layout : L R C LFE Ls Rs

Sampling rate : 48.0 kHz

Frame rate : 31.250 FPS (1536 SPF)

Compression mode : Lossy

Stream size : 306 MiB (8%)

Title : WEBDL

Language : Italian

Service kind : Complete Main

Default : Yes

Forced : No

Audio #2

ID : 3

Format : AC-3

Format/Info : Audio Coding 3

Commercial name : Dolby Digital

Codec ID : A_AC3

Duration : 1 h 35 min

Bit rate mode : Constant

Bit rate : 448 kb/s

Channel(s) : 6 channels

Channel layout : L R C LFE Ls Rs

Sampling rate : 48.0 kHz

Frame rate : 31.250 FPS (1536 SPF)

Compression mode : Lossy

Stream size : 306 MiB (8%)

Title : DTS

Language : English

Service kind : Complete Main

Default : No

Forced : No


In viaggio con Flora-Saving FDownload Torrent Magnet

#viaggio #con #FloraSaving