In.the.Tall.Grass.2019.2160p. Full Torrent Magnet Download

Download Torrent In.the.Tall.Grass.2019.2160p. Movie Full in HD Result. Movie In.the.Tall.Grass.2019.2160p. Torrent Download full. Movie In.the.Tall.Grass.2019.2160p. torrent Magnet Download Full. In.the.Tall.Grass.2019.2160p. Full Movie Torrent Download And Magnet Download For your PC And Mobiles. Latest Movie In.the.Tall.Grass.2019.2160p. Download Link In Bottom.

Torrent And Magnet Links Below

https://www.imdb.com/title/tt4687108/

Code:

Video

ID : 1

Format : HEVC

Format/Info : High Efficiency Video Coding

Format profile : Main [email protected]@Main

HDR format : SMPTE ST 2086, HDR10 compatible

Codec ID : V_MPEGH/ISO/HEVC

Duration : 1 h 41 min

Bit rate : 15.0 Mb/s

Width : 3 840 pixels

Height : 2 160 pixels

Display aspect ratio : 16:9

Frame rate mode : Constant

Frame rate : 24.000 FPS

Color space : YUV

Chroma subsampling : 4:2:0 (Type 2)

Bit depth : 10 bits

Bits/(Pixel*Frame) : 0.075

Stream size : 10.6 GiB (95%)

Default : Yes

Forced : No

Color range : Limited

Color primaries : BT.2020

Transfer characteristics : PQ

Matrix coefficients : BT.2020 non-constant

Mastering display color primaries : Display P3

Mastering display luminance : min: 0.0001 cd/m2, max: 1000 cd/m2

Maximum Content Light Level : 1388 cd/m2

Maximum Frame-Average Light Level : 355 cd/m2

Audio

ID : 2

Format : E-AC-3 JOC

Format/Info : Enhanced AC-3 with Joint Object Coding

Commercial name : Dolby Digital Plus with Dolby Atmos

Codec ID : A_EAC3

Duration : 1 h 41 min

Bit rate mode : Constant

Bit rate : 768 kb/s

Channel(s) : 6 channels

Channel layout : L R C LFE Ls Rs

Sampling rate : 48.0 kHz

Frame rate : 31.250 FPS (1536 SPF)

Compression mode : Lossy

Stream size : 560 MiB (5%)

Title : DDP 5.1

Language : English

Service kind : Complete Main

Default : Yes

Forced : No

Complexity index : 16

Number of dynamic objects : 15

Bed channel count : 1 channel

Bed channel configuration : LFE

Text #1

ID : 3

Format : UTF-8

Codec ID : S_TEXT/UTF8

Codec ID/Info : UTF-8 Plain Text

Duration : 1 h 38 min

Bit rate : 48 b/s

Count of elements : 1501

Stream size : 35.1 KiB (0%)

Language : English

Default : Yes

Forced : No

Text #2

ID : 4

Format : UTF-8

Codec ID : S_TEXT/UTF8

Codec ID/Info : UTF-8 Plain Text

Duration : 1 h 39 min

Bit rate : 37 b/s

Count of elements : 1178

Stream size : 27.5 KiB (0%)

Language : Danish

Default : No

Forced : No

Text #3

ID : 5

Format : UTF-8

Codec ID : S_TEXT/UTF8

Codec ID/Info : UTF-8 Plain Text

Duration : 1 h 39 min

Bit rate : 32 b/s

Count of elements : 1133

Stream size : 23.8 KiB (0%)

Language : Czech

Default : No

Forced : No

Text #4

ID : 6

Format : UTF-8

Codec ID : S_TEXT/UTF8

Codec ID/Info : UTF-8 Plain Text

Duration : 1 h 39 min

Bit rate : 63 b/s

Count of elements : 1177

Stream size : 45.7 KiB (0%)

Language : Arabic

Default : No

Forced : No

Text #5

ID : 7

Format : UTF-8

Codec ID : S_TEXT/UTF8

Codec ID/Info : UTF-8 Plain Text

Duration : 1 h 39 min

Bit rate : 58 b/s

Count of elements : 1154

Stream size : 42.5 KiB (0%)

Language : Greek

Default : No

Forced : No

Text #6

ID : 8

Format : UTF-8

Codec ID : S_TEXT/UTF8

Codec ID/Info : UTF-8 Plain Text

Duration : 1 h 39 min

Bit rate : 32 b/s

Count of elements : 1142

Stream size : 23.8 KiB (0%)

Language : Spanish

Default : No

Forced : No

Text #7

ID : 9

Format : UTF-8

Codec ID : S_TEXT/UTF8

Codec ID/Info : UTF-8 Plain Text

Duration : 1 h 33 min

Bit rate : 37 b/s

Count of elements : 1100

Stream size : 26.1 KiB (0%)

Language : Spanish

Default : No

Forced : No

Text #8

ID : 10

Format : UTF-8

Codec ID : S_TEXT/UTF8

Codec ID/Info : UTF-8 Plain Text

Duration : 1 h 39 min

Bit rate : 34 b/s

Count of elements : 1039

Stream size : 25.0 KiB (0%)

Language : Finnish

Default : No

Forced : No

Text #9

ID : 11

Format : UTF-8

Codec ID : S_TEXT/UTF8

Codec ID/Info : UTF-8 Plain Text

Duration : 1 h 39 min

Bit rate : 34 b/s

Count of elements : 1144

Stream size : 25.0 KiB (0%)

Language : German

Default : No

Forced : No

Text #10

ID : 12

Format : UTF-8

Codec ID : S_TEXT/UTF8

Codec ID/Info : UTF-8 Plain Text

Duration : 1 h 39 min

Bit rate : 56 b/s

Count of elements : 1178

Stream size : 41.0 KiB (0%)

Language : Hebrew

Default : No

Forced : No

Text #11

ID : 13

Format : UTF-8

Codec ID : S_TEXT/UTF8

Codec ID/Info : UTF-8 Plain Text

Duration : 1 h 39 min

Bit rate : 100 b/s

Count of elements : 1178

Stream size : 72.8 KiB (0%)

Language : Hindi

Default : No

Forced : No

Text #12

ID : 14

Format : UTF-8

Codec ID : S_TEXT/UTF8

Codec ID/Info : UTF-8 Plain Text

Duration : 1 h 39 min

Bit rate : 34 b/s

Count of elements : 1094

Stream size : 24.8 KiB (0%)

Language : French

Default : No

Forced : No

Text #13

ID : 15

Format : UTF-8

Codec ID : S_TEXT/UTF8

Codec ID/Info : UTF-8 Plain Text

Duration : 1 h 39 min

Bit rate : 37 b/s

Count of elements : 1178

Stream size : 26.9 KiB (0%)

Language : Hungarian

Default : No

Forced : No

Text #14

ID : 16

Format : UTF-8

Codec ID : S_TEXT/UTF8

Codec ID/Info : UTF-8 Plain Text

Duration : 1 h 39 min

Bit rate : 34 b/s

Count of elements : 1157

Stream size : 25.0 KiB (0%)

Language : Indonesian

Default : No

Forced : No

Text #15

ID : 17

Format : UTF-8

Codec ID : S_TEXT/UTF8

Codec ID/Info : UTF-8 Plain Text

Duration : 1 h 39 min

Bit rate : 47 b/s

Count of elements : 1164

Stream size : 34.2 KiB (0%)

Language : Korean

Default : No

Forced : No

Text #16

ID : 18

Format : UTF-8

Codec ID : S_TEXT/UTF8

Codec ID/Info : UTF-8 Plain Text

Duration : 1 h 38 min

Bit rate : 33 b/s

Count of elements : 1127

Stream size : 24.0 KiB (0%)

Language : Italian

Default : No

Forced : No

Text #17

ID : 19

Format : UTF-8

Codec ID : S_TEXT/UTF8

Codec ID/Info : UTF-8 Plain Text

Duration : 1 h 39 min

Bit rate : 35 b/s

Count of elements : 1165

Stream size : 25.6 KiB (0%)

Language : Norwegian Bokmal

Default : No

Forced : No

Text #18

ID : 20

Format : UTF-8

Codec ID : S_TEXT/UTF8

Codec ID/Info : UTF-8 Plain Text

Duration : 1 h 39 min

Bit rate : 32 b/s

Count of elements : 1125

Stream size : 23.4 KiB (0%)

Language : Polish

Default : No

Forced : No

Text #19

ID : 21

Format : UTF-8

Codec ID : S_TEXT/UTF8

Codec ID/Info : UTF-8 Plain Text

Duration : 1 h 32 min

Bit rate : 33 b/s

Count of elements : 1137

Stream size : 22.9 KiB (0%)

Title : Brasil

Language : Portuguese

Default : No

Forced : No

Text #20

ID : 22

Format : UTF-8

Codec ID : S_TEXT/UTF8

Codec ID/Info : UTF-8 Plain Text

Duration : 1 h 39 min

Bit rate : 36 b/s

Count of elements : 1132

Stream size : 26.5 KiB (0%)

Language : Japanese

Default : No

Forced : No

Text #21

ID : 23

Format : UTF-8

Codec ID : S_TEXT/UTF8

Codec ID/Info : UTF-8 Plain Text

Duration : 1 h 39 min

Bit rate : 40 b/s

Count of elements : 1161

Stream size : 29.2 KiB (0%)

Title : Simplified

Language : Chinese

Default : No

Forced : No

Text #22

ID : 24

Format : UTF-8

Codec ID : S_TEXT/UTF8

Codec ID/Info : UTF-8 Plain Text

Duration : 1 h 39 min

Bit rate : 37 b/s

Count of elements : 1172

Stream size : 27.3 KiB (0%)

Title : Traditional

Language : Chinese

Default : No

Forced : No

Text #23

ID : 25

Format : UTF-8

Codec ID : S_TEXT/UTF8

Codec ID/Info : UTF-8 Plain Text

Duration : 1 h 39 min

Bit rate : 31 b/s

Count of elements : 886

Stream size : 22.7 KiB (0%)

Language : Dutch

Default : No

Forced : No

Text #24

ID : 26

Format : UTF-8

Codec ID : S_TEXT/UTF8

Codec ID/Info : UTF-8 Plain Text

Duration : 1 h 39 min

Bit rate : 32 b/s

Count of elements : 1154

Stream size : 23.8 KiB (0%)

Language : Portuguese

Default : No

Forced : No

Text #25

ID : 27

Format : UTF-8

Codec ID : S_TEXT/UTF8

Codec ID/Info : UTF-8 Plain Text

Duration : 1 h 39 min

Bit rate : 37 b/s

Count of elements : 1140

Stream size : 27.4 KiB (0%)

Language : Romanian

Default : No

Forced : No

Text #26

ID : 28

Format : UTF-8

Codec ID : S_TEXT/UTF8

Codec ID/Info : UTF-8 Plain Text

Duration : 1 h 39 min

Bit rate : 33 b/s

Count of elements : 1048

Stream size : 24.2 KiB (0%)

Language : Swedish

Default : No

Forced : No

Text #27

ID : 29

Format : UTF-8

Codec ID : S_TEXT/UTF8

Codec ID/Info : UTF-8 Plain Text

Duration : 1 h 39 min

Bit rate : 98 b/s

Count of elements : 1161

Stream size : 71.7 KiB (0%)

Language : Thai

Default : No

Forced : No

Text #28

ID : 30

Format : UTF-8

Codec ID : S_TEXT/UTF8

Codec ID/Info : UTF-8 Plain Text

Duration : 1 h 39 min

Bit rate : 55 b/s

Count of elements : 929

Stream size : 40.1 KiB (0%)

Language : Russian

Default : No

Forced : No

Text #29

ID : 31

Format : UTF-8

Codec ID : S_TEXT/UTF8

Codec ID/Info : UTF-8 Plain Text

Duration : 1 h 39 min

Bit rate : 50 b/s

Count of elements : 1157

Stream size : 36.4 KiB (0%)

Language : Vietnamese

Default : No

Forced : No

Text #30

ID : 32

Format : UTF-8

Codec ID : S_TEXT/UTF8

Codec ID/Info : UTF-8 Plain Text

Duration : 1 h 39 min

Bit rate : 36 b/s

Count of elements : 1158

Stream size : 26.8 KiB (0%)

Language : Turkish

Default : No

Forced : No

In.the.Tall.Grass.2019.2160p.Download Torrent Magnet

#IntheTallGrass20192160p