In.The.Mood.For.Love.2000.CRI Full Torrent Magnet Download

Download Torrent In.The.Mood.For.Love.2000.CRI Movie Full in HD Result. Movie In.The.Mood.For.Love.2000.CRI Torrent Download full. Movie In.The.Mood.For.Love.2000.CRI torrent Magnet Download Full. In.The.Mood.For.Love.2000.CRI Full Movie Torrent Download And Magnet Download For your PC And Mobiles. Latest Movie In.The.Mood.For.Love.2000.CRI Download Link In Bottom.

Torrent And Magnet Links Below

Source: In The Mood For Love (2000) 1080p Criterion Collection Blu-ray AVC REMUX DTS-HD MA 5.1-DIY (21.09GB)

Encode: In.The.Mood.For.Love.2000.CRITERION.1080p.BluRay.DD5.1.x265-POIASD (3.89GB)

Greetz iJP, roy, Kiiroi, no5tyle & WalkerServers!

For great seedboxes, check out WalkerServers

Notes:

Encoded with x265 8-bit

Audio is 640k Cantonese

Contains soft text-based english subs

Screens:

Code:


General

Unique ID : 90149492775289312734071345168552406489 (0x43D229279D688E7B0797CF98E0B9ADD9)

Complete name : In.The.Mood.For.Love.2000.CRITERION.1080p.BluRay.DD5.1.x265-POIASD.mkv

Format : Matroska

Format version : Version 4

File size : 3.89 GiB

Duration : 1 h 38 min

Overall bit rate : 5 637 kb/s

Movie name : In The Mood For Love (2000) Criterion Collection

Encoded date : UTC 2021-03-20 03:18:07

Writing application : mkvmerge v47.0.0 (‘Black Flag’) 64-bit

Writing library : libebml v1.3.10 + libmatroska v1.5.2 / Lavf58.20.100

Video

ID : 1

Format : HEVC

Format/Info : High Efficiency Video Coding

Format profile : [email protected]@Main

Codec ID : V_MPEGH/ISO/HEVC

Duration : 1 h 38 min

Bit rate : 4 995 kb/s

Width : 1 800 pixels

Height : 1 080 pixels

Display aspect ratio : 5:3

Frame rate mode : Variable

Frame rate : 23.976 (23976/1000) FPS

Color space : YUV

Chroma subsampling : 4:2:0

Bit depth : 8 bits

Bits/(Pixel*Frame) : 0.107

Stream size : 3.44 GiB (89%)

Writing library : x265 2.9:[Linux][GCC 8.2.0][64 bit] 8bit+10bit+12bit

Encoding settings : cpuid=1111039 / frame-threads=3 / wpp / no-pmode / no-pme / no-psnr / no-ssim / log-level=2 / input-csp=1 / input-res=1800×1080 / interlace=0 / total-frames=0 / level-idc=0 / high-tier=1 / uhd-bd=0 / ref=3 / no-allow-non-conformance / no-repeat-headers / annexb / no-aud / no-hrd / info / hash=0 / no-temporal-layers / open-gop / min-keyint=23 / keyint=250 / gop-lookahead=0 / bframes=4 / b-adapt=2 / b-pyramid / bframe-bias=0 / rc-lookahead=20 / lookahead-slices=6 / scenecut=40 / radl=0 / no-intra-refresh / ctu=64 / min-cu-size=8 / no-rect / no-amp / max-tu-size=32 / tu-inter-depth=1 / tu-intra-depth=1 / limit-tu=0 / rdoq-level=0 / dynamic-rd=0.00 / no-ssim-rd / signhide / no-tskip / nr-intra=0 / nr-inter=0 / no-constrained-intra / strong-intra-smoothing / max-merge=2 / limit-refs=3 / no-limit-modes / me=1 / subme=2 / merange=57 / temporal-mvp / weightp / no-weightb / no-analyze-src-pics / deblock=0:0 / sao / no-sao-non-deblock / rd=3 / no-early-skip / rskip / no-fast-intra / no-tskip-fast / no-cu-lossless / no-b-intra / no-splitrd-skip / rdpenalty=0 / psy-rd=2.00 / psy-rdoq=0.00 / no-rd-refine / no-lossless / cbqpoffs=0 / crqpoffs=0 / rc=abr / bitrate=5000 / qcomp=0.70 / qpstep=4 / stats-write=0 / stats-read=2 / cplxblur=20.0 / qblur=0.5 / ipratio=1.40 / pbratio=1.30 / aq-mode=1 / aq-strength=1.00 / cutree / zone-count=0 / no-strict-cbr / qg-size=32 / no-rc-grain / qpmax=69 / qpmin=0 / no-const-vbv / sar=1 / overscan=0 / videoformat=5 / range=0 / colorprim=2 / transfer=2 / colormatrix=2 / chromaloc=0 / display-window=0 / max-cll=0,0 / min-luma=0 / max-luma=255 / log2-max-poc-lsb=8 / vui-timing-info / vui-hrd-info / slices=1 / no-opt-qp-pps / no-opt-ref-list-length-pps / no-multi-pass-opt-rps / scenecut-bias=0.05 / no-opt-cu-delta-qp / no-aq-motion / no-hdr / no-hdr-opt / no-dhdr10-opt / no-idr-recovery-sei / analysis-reuse-level=5 / scale-factor=0 / refine-intra=0 / refine-inter=0 / refine-mv=0 / no-limit-sao / ctu-info=0 / no-lowpass-dct / refine-mv-type=0 / copy-pic=1 / max-ausize-factor=1.0 / no-dynamic-refine / no-single-sei

Default : No

Forced : No

Audio

ID : 2

Format : AC-3

Format/Info : Audio Coding 3

Commercial name : Dolby Digital

Codec ID : A_AC3

Duration : 1 h 38 min

Bit rate mode : Constant

Bit rate : 640 kb/s

Channel(s) : 6 channels

Channel layout : L R C LFE Ls Rs

Sampling rate : 48.0 kHz

Frame rate : 31.250 FPS (1536 SPF)

Bit depth : 16 bits

Compression mode : Lossy

Stream size : 452 MiB (11%)

Title : Cantonese – Dolby Digital 5.1 (Surround)

Writing library : Lavc58.35.100 ac3

Language : Chinese

Service kind : Complete Main

Default : Yes

Forced : No

Text

ID : 3

Format : UTF-8

Codec ID : S_TEXT/UTF8

Codec ID/Info : UTF-8 Plain Text

Duration : 1 h 34 min

Bit rate : 34 b/s

Count of elements : 873

Stream size : 23.5 KiB (0%)

Title : English

Language : English

Default : Yes

Forced : No

Menu

00:00:00.000 : :Chapter 01

00:05:00.175 : :Chapter 02

00:09:21.227 : :Chapter 03

00:11:23.349 : :Chapter 04

00:14:47.470 : :Chapter 05

00:17:12.323 : :Chapter 06

00:19:16.655 : :Chapter 07

00:24:32.554 : :Chapter 08

00:27:48.458 : :Chapter 09

00:31:16.166 : :Chapter 10

00:36:21.179 : :Chapter 11

00:38:50.995 : :Chapter 12

00:40:11.826 : :Chapter 13

00:42:45.313 : :Chapter 14

00:45:01.240 : :Chapter 15

00:51:13.320 : :Chapter 16

00:57:40.499 : :Chapter 17

01:01:13.169 : :Chapter 18

01:06:07.338 : :Chapter 19

01:13:52.470 : :Chapter 20

01:15:56.844 : :Chapter 21

01:18:44.261 : :Chapter 22

01:21:22.878 : :Chapter 23

01:24:48.542 : :Chapter 24

01:29:11.137 : :Chapter 25

01:29:48.550 : :Chapter 26

01:33:20.428 : :Chapter 27

In.The.Mood.For.Love.2000.CRIDownload Torrent Magnet

#InTheMoodForLove2000CRI