In Bruges 2008 x264 720p Esub Full Torrent Magnet Download

Download Torrent In Bruges 2008 x264 720p Esub Movie Full in HD Result. Movie In Bruges 2008 x264 720p Esub Torrent Download full. Movie In Bruges 2008 x264 720p Esub torrent Magnet Download Full. In Bruges 2008 x264 720p Esub Full Movie Torrent Download And Magnet Download For your PC And Mobiles. Latest Movie In Bruges 2008 x264 720p Esub Download Link In Bottom.

Torrent And Magnet Links Below

Greets

Admin , Moderator , Noir, Ex0duS5150, theeshiznit, MisterQ, UserHEVC, miok, Silmarillion, Mr. Blue, MaDHeX and many more ;

Join Us On TeleGram

https://t.me/gopisahit

In Bruges 2008 x264 720p Esub BluRay Dual Audio English Hindi THE GOPI SAHI

Format : Matroska

Format version : Version 4

File size : 910 MiB

Duration : 1 h 46 min

Overall bit rate : 1 191 kb/s

Movie name : In Bruges 2008 GOPI SAHI

Encoded date : UTC 2021-05-29 22:24:42

Video

ID : 1

Format : AVC

Format/Info : Advanced Video Codec

Format profile : [email protected]
Format settings : CABAC / 5 Ref Frames

Format settings, CABAC : Yes

Format settings, Reference fra : 5 frames

Codec ID : V_MPEG4/ISO/AVC

Duration : 1 h 46 min

Bit rate : 899 kb/s

Width : 1 280 pixels

Height : 544 pixels

Display aspect ratio : 2.35:1

Frame rate mode : Constant

Frame rate : 24.000 FPS

Color space : YUV

Chroma subsampling : 4:2:0

Bit depth : 8 bits

Scan type : Progressive

Bits/(Pixel*Frame) : 0.054

Stream size : 687 MiB (75%)

Title : GOPI SAHI

Writing library : x264 core 157 r2935 545de2f

Audio #1

ID : 2

Format : AAC LC

Format/Info : Advanced Audio Codec Low Complexity

Codec ID : A_AAC-2

Duration : 1 h 46 min

Bit rate : 192 kb/s

Channel(s) : 6 channels

Channel layout : C L R Ls Rs LFE

Sampling rate : 48.0 kHz

Frame rate : 46.875 FPS (1024 SPF)

Compression mode : Lossy

Stream size : 147 MiB (16%)

Title : GOPI SAHI

Language : Hindi

Default : Yes

Forced : No

Audio #2

ID : 3

Format : AAC LC

Format/Info : Advanced Audio Codec Low Complexity

Codec ID : A_AAC-2

Duration : 1 h 46 min

Bit rate : 96.0 kb/s

Channel(s) : 2 channels

Channel layout : L R

Sampling rate : 48.0 kHz

Frame rate : 46.875 FPS (1024 SPF)

Compression mode : Lossy

Delay relative to video : 31 ms

Stream size : 73.6 MiB (8%)

Title : GOPI SAHI

Language : English

Default : No

Forced : No

Text

ID : 4

Format : UTF-8

Codec ID : S_TEXT/UTF8

Codec ID/Info : UTF-8 Plain Text

Duration : 1 h 40 min

Bit rate : 58 b/s

Count of elements : 1173

Stream size : 42.7 KiB (0%)

Title : GOPI SAHI

Language : English

Default : Yes

Forced : No

In Bruges 2008 x264 720p EsubDownload Torrent Magnet

#Bruges #x264 #720p #Esub