If.Anything.Happens.I.Love.Yo Full Torrent Magnet Download

Download Torrent If.Anything.Happens.I.Love.Yo Movie Full in HD Result. Movie If.Anything.Happens.I.Love.Yo Torrent Download full. Movie If.Anything.Happens.I.Love.Yo torrent Magnet Download Full. If.Anything.Happens.I.Love.Yo Full Movie Torrent Download And Magnet Download For your PC And Mobiles. Latest Movie If.Anything.Happens.I.Love.Yo Download Link In Bottom.

Torrent And Magnet Links Below

Release: If.Anything.Happens.I.Love.You.2020.1080p.WEB-DL.x264.AC3.HORiZON-ArtSubs

IMDB: https://www.imdb.com/title/tt11768948

Subtitle: English (soft)

Plot: If Anything Happens I Love You is a beautifully illustrated animated short film that takes us on an extraordinary emotional journey of two parents struggling to overcome the hurt left by a tragic event that leaves their family changed forever. The film is a stunning tale that juxtaposes the excruciating pain one can feel as well as the resilience of the human spirit. If Anything Happens I Love You is a touching experience for anyone who has ever loved and lost. Nominated for Best Animated Short Film in the Oscar 2021.

General

Complete name : If.Anything.Happens.I.Love.You.2020.1080p.WEB-DL.x264.AC3.HORiZON-ArtSubs.mkv

Format : Matroska

Format version : Version 4

File size : 437 MiB

Duration : 12 min 54 s

Overall bit rate mode : Variable

Overall bit rate : 4 735 kb/s

Encoded date : UTC 2021-02-12 22:51:44

Writing application : mkvmerge v50.0.0 (‘Awakenings’) 64-bit

Writing library : libebml v1.4.0 + libmatroska v1.6.2

Video

ID : 1

Format : AVC

Format/Info : Advanced Video Codec

Format profile : [email protected]
Format settings : CABAC / 3 Ref Frames

Format settings, CABAC : Yes

Format settings, Reference : 3 frames

Codec ID : V_MPEG4/ISO/AVC

Duration : 12 min 53 s

Bit rate mode : Variable

Bit rate : 4 287 kb/s

Nominal bit rate : 4 584 kb/s

Maximum bit rate : 8 040 kb/s

Width : 1 920 pixels

Height : 1 080 pixels

Display aspect ratio : 16:9

Frame rate mode : Constant

Frame rate : 24.000 FPS

Color space : YUV

Chroma subsampling : 4:2:0

Bit depth : 8 bits

Scan type : Progressive

Bits/(Pixel*Frame) : 0.086

Stream size : 395 MiB (90%)

Writing library : x264 core 148 r2722 1b0121b

Encoding settings : cabac=1 / ref=3 / deblock=1:0:0 / analyse=0x1:0x111 / me=umh / subme=10 / psy=1 / psy_rd=1.00:0.00 / mixed_ref=1 / me_range=24 / chroma_me=1 / trellis=2 / 8x8dct=0 / cqm=0 / deadzone=21,11 / fast_pskip=1 / chroma_qp_offset=-2 / threads=6 / lookahead_threads=1 / sliced_threads=0 / nr=0 / decimate=1 / interlaced=0 / bluray_compat=0 / stitchable=1 / constrained_intra=0 / bframes=2 / b_pyramid=0 / b_adapt=2 / b_bias=0 / direct=3 / weightb=1 / open_gop=0 / weightp=2 / keyint=250 / keyint_min=24 / scenecut=0 / intra_refresh=0 / rc_lookahead=48 / rc=2pass / mbtree=1 / bitrate=4584 / ratetol=1.0 / qcomp=0.50 / qpmin=6 / qpmax=51 / qpstep=4 / cplxblur=20.0 / qblur=0.5 / vbv_maxrate=8040 / vbv_bufsize=10720 / nal_hrd=vbr / filler=0 / ip_ratio=1.40 / aq=1:1.00

Language : English

Default : Yes

Forced : No

Audio

ID : 2

Format : AC-3

Format/Info : Audio Coding 3

Commercial name : Dolby Digital

Codec ID : A_AC3

Duration : 12 min 54 s

Bit rate mode : Constant

Bit rate : 448 kb/s

Channel(s) : 6 channels

Channel layout : L R C LFE Ls Rs

Sampling rate : 48.0 kHz

Frame rate : 31.250 FPS (1536 SPF)

Compression mode : Lossy

Stream size : 41.3 MiB (9%)

Language : English

Service kind : Complete Main

Default : Yes

Forced : No

Text

ID : 3

Format : UTF-8

Codec ID : S_TEXT/UTF8

Codec ID/Info : UTF-8 Plain Text

Duration : 8 min 58 s

Bit rate : 22 b/s

Count of elements : 41

Stream size : 1.46 KiB (0%)

Language : English

Default : Yes

Forced : No

SCREENSHOTS:




If.Anything.Happens.I.Love.YoDownload Torrent Magnet

#IfAnythingHappensILoveYo