I comme Icare (1979) BDRip 10 Full Torrent Magnet Download

Download Torrent I comme Icare (1979) BDRip 10 Movie Full in HD Result. Movie I comme Icare (1979) BDRip 10 Torrent Download full. Movie I comme Icare (1979) BDRip 10 torrent Magnet Download Full. I comme Icare (1979) BDRip 10 Full Movie Torrent Download And Magnet Download For your PC And Mobiles. Latest Movie I comme Icare (1979) BDRip 10 Download Link In Bottom.

Torrent And Magnet Links Below

IMDB

Code:


General

Complete name : I.comme.Icare.(1979).BDRip.1080p.DTS.[Borsalino].DE.srt

Format : SubRip

File size : 98.5 KiB

Text

Format : SubRip

Compression mode : Lossless

General

Complete name : I.comme.Icare.(1979).BDRip.1080p.DTS.[Borsalino].EL.srt

Format : SubRip

File size : 81.0 KiB

Text

Format : SubRip

Compression mode : Lossless

General

Complete name : I.comme.Icare.(1979).BDRip.1080p.DTS.[Borsalino].EN.srt

Format : SubRip

File size : 99.3 KiB

Text

Format : SubRip

Compression mode : Lossless

General

Complete name : I.comme.Icare.(1979).BDRip.1080p.DTS.[Borsalino].ES.srt

Format : SubRip

File size : 96.9 KiB

Text

Format : SubRip

Compression mode : Lossless

General

Complete name : I.comme.Icare.(1979).BDRip.1080p.DTS.[Borsalino].NL.srt

Format : SubRip

File size : 101 KiB

Text

Format : SubRip

Compression mode : Lossless

General

Complete name : I.comme.Icare.(1979).BDRip.1080p.DTS.[Borsalino].mkv

Format : Matroska

Format version : Version 4

File size : 14.7 GiB

Duration : 2 h 8 min

Overall bit rate : 16.4 Mb/s

Movie name : I.comme.Icare.(1979).BDRip.1080p.DTS.[Borsalino]
Writing application : mkvmerge v56.1.0 (‘My Friend’) 64-bit

Writing library : libebml v1.4.2 + libmatroska v1.6.4

Video

ID : 1

Format : AVC

Format/Info : Advanced Video Codec

Format profile : [email protected]
Format settings : CABAC / 4 Ref Frames

Format settings, CABAC : Yes

Format settings, Reference frames : 4 frames

Codec ID : V_MPEG4/ISO/AVC

Duration : 2 h 8 min

Bit rate : 15.6 Mb/s

Width : 1 792 pixels

Height : 1 080 pixels

Display aspect ratio : 5:3

Frame rate mode : Constant

Frame rate : 24.000 FPS

Color space : YUV

Chroma subsampling : 4:2:0

Bit depth : 8 bits

Scan type : Progressive

Bits/(Pixel*Frame) : 0.336

Stream size : 14.0 GiB (95%)

Title : French

Writing library : x264 core 155 r2901 7d0ff22

Encoding settings : cabac=1 / ref=4 / deblock=1:-1:-1 / analyse=0x3:0x133 / me=umh / subme=10 / psy=1 / psy_rd=1.00:0.15 / mixed_ref=1 / me_range=24 / chroma_me=1 / trellis=2 / 8x8dct=1 / cqm=0 / deadzone=21,11 / fast_pskip=1 / chroma_qp_offset=-3 / threads=6 / lookahead_threads=1 / sliced_threads=0 / nr=0 / decimate=1 / interlaced=0 / bluray_compat=0 / constrained_intra=0 / bframes=8 / b_pyramid=2 / b_adapt=2 / b_bias=0 / direct=3 / weightb=1 / open_gop=0 / weightp=2 / keyint=250 / keyint_min=24 / scenecut=40 / intra_refresh=0 / rc_lookahead=60 / rc=crf / mbtree=1 / crf=19.0 / qcomp=0.60 / qpmin=0 / qpmax=69 / qpstep=4 / ip_ratio=1.40 / aq=1:1.00

Language : French

Default : Yes

Forced : No

Audio

ID : 2

Format : DTS

Format/Info : Digital Theater Systems

Codec ID : A_DTS

Duration : 2 h 8 min

Bit rate mode : Constant

Bit rate : 768 kb/s

Channel(s) : 2 channels

Channel layout : L R

Sampling rate : 48.0 kHz

Frame rate : 93.750 FPS (512 SPF)

Bit depth : 24 bits

Compression mode : Lossy

Stream size : 706 MiB (5%)

Title : French

Language : French

Default : No

Forced : No

Spoken language

Subtitles (srt files)











I comme Icare (1979) BDRip 10Download Torrent Magnet

#comme #Icare #BDRip