I Am Not Blind 2021 WebHD HCE Full Torrent Magnet Download

Download Torrent I Am Not Blind 2021 WebHD HCE Movie Full in HD Result. Movie I Am Not Blind 2021 WebHD HCE Torrent Download full. Movie I Am Not Blind 2021 WebHD HCE torrent Magnet Download Full. I Am Not Blind 2021 WebHD HCE Full Movie Torrent Download And Magnet Download For your PC And Mobiles. Latest Movie I Am Not Blind 2021 WebHD HCE Download Link In Bottom.

Torrent And Magnet Links Below

note subtitle hardcoded

I Am Not Blind 2021 WebHD HCESUB x264 720p Hindi THE GOPI SAHI

Format : Matroska

Format version : Version 4

File size : 725 MiB

Duration : 1 h 41 min

Overall bit rate : 997 kb/s

Movie name : I Am Not Blind 2021 GOPI SAHI

Encoded date : UTC 2021-01-28 13:48:55

Video

ID : 1

Format : AVC

Format/Info : Advanced Video Codec

Format profile : [email protected]
Format settings : CABAC / 5 Ref Frames

Format settings, CABAC : Yes

Format settings, Reference fra : 5 frames

Codec ID : V_MPEG4/ISO/AVC

Duration : 1 h 41 min

Bit rate : 899 kb/s

Width : 1 280 pixels

Height : 550 pixels

Display aspect ratio : 2.35:1

Frame rate mode : Constant

Frame rate : 24.972 FPS

Color space : YUV

Chroma subsampling : 4:2:0

Bit depth : 8 bits

Scan type : Progressive

Bits/(Pixel*Frame) : 0.051

Stream size : 654 MiB (90%)

Title : GOPI SAHI

Writing library : x264 core 157 r2935 545de2f

Audio

ID : 2

Format : AAC LC

Format/Info : Advanced Audio Codec Low Complexity

Codec ID : A_AAC-2

Duration : 1 h 41 min

Bit rate : 96.0 kb/s

Channel(s) : 2 channels

Channel layout : L R

Sampling rate : 44.1 kHz

Frame rate : 43.066 FPS (1024 SPF)

Compression mode : Lossy

Delay relative to video : -23 ms

Stream size : 69.8 MiB (10%)

Title : GOPI SAHI

Language : Hindi

Default : Yes

Forced : No

I Am Not Blind 2021 WebHD HCEDownload Torrent Magnet

#Blind #WebHD #HCE