Hum Tum 2004 1080p AMZN WEB-D Full Torrent Magnet Download

Download Torrent Hum Tum 2004 1080p AMZN WEB-D Movie Full in HD Result. Movie Hum Tum 2004 1080p AMZN WEB-D Torrent Download full. Movie Hum Tum 2004 1080p AMZN WEB-D torrent Magnet Download Full. Hum Tum 2004 1080p AMZN WEB-D Full Movie Torrent Download And Magnet Download For your PC And Mobiles. Latest Movie Hum Tum 2004 1080p AMZN WEB-D Download Link In Bottom.

Torrent And Magnet Links Below

Title: Hum Tum

Year: 2004

Runtime: 143 minutes

Votes: 13295

Rating: 7.0/10

Language: Hindi, English

Country: India

All Genres: Comedy, Drama, Romance

Plot Outline: A novel look at the eternal battle of the sexes and the trials and tribulations of Karan and Rhea and their attempts to understand each other.

Director: Kunal Kohli

Writing By: Siddharth Anand,Kunal Kohli,

Produced By: Siddharth Anand,Aditya Chopra,Yash Chopra,Sanjay Shivalkar,

Music: Salim Merchant Jatin Pandit Lalit Pandit

Plot: A novel look at the eternal battle of the sexes and the trials and tribulations of Karan and Rhea and their attempts to understand each other. – Official SourceLife is not always like the movies. Love isn’t always at first sight. Very often, a relationship develops slowly and it takes many years between “boy meets girl” and “boy gets girl”. Hum Tum is a refreshing look at the eternal battle of the sexes as it follows the lives of Karan (Saif Ali Khan) and Rhea (Rani Mukerji). Karan is a cartoonist and his character “Hum” and “Tum” reflect his perspective on the strange love-hate relationship between men and women. Rhea is sensitive, well bred and self-confident. She can give as good as she gets and is not afraid of standing up to men. Initially, the two have very little in common. But, as life would have it, their paths keep crossing and, over the course of a decade, their relationship evolves, from hate to mutual respect, friendship and finally – In a cinematic universe that offers simplistic scenarios to the complex relationship between men and women. Hum Tum is a novel look at the trials and tribulations of “every man” and “every woman” and their attempts to understand one another.

General

Format : Matroska

Format version : Version 4

File size : 14.3 GiB

Duration : 2 h 22 min

Overall bit rate : 14.3 Mb/s

Encoded date : UTC 2021-03-13 07:08:58

Writing application : mkvmerge v52.0.0 (‘Secret For The Mad’) 64-bit

Writing library : libebml v1.4.1 + libmatroska v1.6.2

Video

ID : 1

Format : AVC

Format/Info : Advanced Video Codec

Format profile : [email protected]
Format settings : CABAC / 4 Ref Frames

Format settings, CABAC : Yes

Format settings, Reference frames : 4 frames

Codec ID : V_MPEG4/ISO/AVC

Duration : 2 h 22 min

Bit rate : 13.7 Mb/s

Width : 1 920 pixels

Height : 816 pixels

Display aspect ratio : 2.35:1

Frame rate mode : Constant

Frame rate : 23.976 (24000/1001) FPS

Color space : YUV

Chroma subsampling : 4:2:0

Bit depth : 8 bits

Scan type : Progressive

Bits/(Pixel*Frame) : 0.365

Stream size : 13.6 GiB (96%)

Default : Yes

Forced : No

Color range : Limited

Color primaries : BT.709

Transfer characteristics : BT.709

Matrix coefficients : BT.709

Audio

ID : 2

Format : E-AC-3

Format/Info : Enhanced AC-3

Commercial name : Dolby Digital Plus

Codec ID : A_EAC3

Duration : 2 h 22 min

Bit rate mode : Constant

Bit rate : 640 kb/s

Channel(s) : 6 channels

Channel layout : L R C LFE Ls Rs

Sampling rate : 48.0 kHz

Frame rate : 31.250 FPS (1536 SPF)

Compression mode : Lossy

Stream size : 653 MiB (4%)

Language : Hindi

Service kind : Complete Main

Default : Yes

Forced : No

Text

ID : 3

Format : UTF-8

Codec ID : S_TEXT/UTF8

Codec ID/Info : UTF-8 Plain Text

Duration : 2 h 19 min

Bit rate : 51 b/s

Count of elements : 1408

Stream size : 53.0 KiB (0%)

Language : English

Default : No

Forced : No





Hum Tum 2004 1080p AMZN WEB-DDownload Torrent Magnet

#Hum #Tum #1080p #AMZN #WEBD