Hitman 2007 Unrated Bonus BR Full Torrent Magnet Download

Download Torrent Hitman 2007 Unrated Bonus BR Movie Full in HD Result. Movie Hitman 2007 Unrated Bonus BR Torrent Download full. Movie Hitman 2007 Unrated Bonus BR torrent Magnet Download Full. Hitman 2007 Unrated Bonus BR Full Movie Torrent Download And Magnet Download For your PC And Mobiles. Latest Movie Hitman 2007 Unrated Bonus BR Download Link In Bottom.

Torrent And Magnet Links Below

______________________________________________________________________________________________________________
Hitman 2007
Bluray · 1080p x265 10bits · DD+ 5.1 VFF ENG · Unrated
More Bonus
¯¯¯¯¯¯¯¯¯¯¯¯¯¯¯¯¯¯¯¯¯¯¯¯¯¯¯¯¯¯¯¯¯¯¯¯¯¯¯¯¯¯¯¯¯¯¯¯¯¯¯¯¯¯¯¯¯¯¯¯¯¯¯¯¯¯¯¯¯¯¯¯¯¯¯¯¯¯¯¯

Year : 2007

Country : French, United States

Version : Version intégrale non censurée

Original, French and English Title : Hitman

Quebec Title : Tueur à gages

Director : Xavier Gens
Music from : Geoff Zanelli

Acteurs : Timothy Olyphant, Dougray Scott, Olga Kurylenko, Robert Knepper, Ulrich Thomsen, Henry Ian Cusick, Michael Offei

Genre : Spying, Crime, Thriller, Action

Certificate : Not recommended for children under 12 years old
Budget : 70 000 000 $ · Recipe : 127 369 342 $ · ratio : 182 %

Link : Allociné 2,7 /5 · IMDB 6,3 /10 · TMDB 59 % · SensCritique 4,4 /10 · Wiki · Bande Annonce

French Plot
Crâne rasé, code barre tatoué sur la nuque, costume noir, chemise blanche et cravate rouge : l’agent 47 est le plus mystérieux et le plus insaisissable des tueurs professionnels . Réputé pour la minutie avec laquelle il va jusqu’au bout de ses missions, il obéit toujours à un protocole strict : extrême vigilance, extrême discrétion et extrême soin apporté à l’exécution de ses contrats. Patience et détermination sont ses deux armes de prédilection. Rien ne l’arrête. Sa signature : l’absence de preuves. Sa spécialité : disparaître sitôt sa mission accomplie. Un vrai fantôme , obligé de se découvrir le jour où Belicoff , candidat aux élections russes, lui tend un piège. Avec Interpol , les services secrets russes et trois tueurs de sa propre agence à ses trousses, l’agent 47 est contraint de briser son propre protocole pour mener à bien sa mission…

Adaptation du jeux vidéo : Hitman de Eidos Interactive 2004

Bonus
5 Deleted Scenes 7 mn – 55,60 Mib – 1920×1080 HEVC 10Bits – VOSTFR – 6f150de5
Bluray Opening 36 s – 9,02 Mib – 1920×1080 HEVC 10Bits – MUET – 9a827a58
Digital Hits 10 mn – 74,00 Mib – 1920×1080 HEVC 10Bits – VOSTFR – c706bc8e
Gag Reel 4 mn – 22,60 Mib – 1920×1080 HEVC 10Bits – VOSTFR – 9271b741
In the Cross Hairs The Making of 24 mn – 193,0 Mib – 1920×1080 HEVC 10Bits – VOSTFR – 77289c9b
Instruments of Destruction 14 mn – 107,0 Mib – 1920×1080 HEVC 10Bits – VOSTFR – bab285f1
Settling the Score 5 mn – 33,70 Mib – 1920×1080 HEVC 10Bits – VOSTFR – 5a92ead7
Teaser 1 mn – 18,30 Mib – 1920×1080 HEVC 10Bits – VOSTFR – 9b29df54
8 bonus, total 513,2 Mib 1 h09 mn


If you enjoy and wish to support, please stay in seeding

Technical Details
¯¯¯¯¯¯¯¯¯¯¯¯¯¯¯¯¯¯¯¯¯¯¯¯¯¯¯¯¯¯¯¯¯¯¯¯¯¯¯¯¯¯¯¯¯¯¯¯¯¯¯¯¯¯¯¯¯¯¯¯¯¯¯¯¯¯¯¯¯¯¯¯¯¯¯¯¯¯¯¯¯¯¯¯¯¯¯¯¯¯¯¯¯¯¯¯¯¯¯¯
Media
Matroska 2,87 Gio 1 h34 mn 4365 Kbps, Total 3,37 Gio 2 h43 mn
Video
HEVC/H265 1920 x822 @23.976 [email protected]@Main 10 bits 3450 Kbps VerySlow qp24,54
Audio
True French 5.1 EAC3 448 Kbps 48KHz 16bits

English (OV) 5.1 EAC3 448 Kbps 48KHz 16bits

Subtitles
True French forced SRT
True French full SRT
True French forced PGS
True French full PGS
English forced PGS
English full SDH PGS
Chapters
International

Screenshot

Origin
Bluray : Video AVC 1080p 16384 Kbps, VFF 5.1 DTS 768 Kbps, Anglais 5.1 DTS-HDMA 4351 Kbps

NFO
¯¯¯¯¯¯¯¯¯¯¯¯¯¯¯¯¯¯¯¯¯¯¯¯¯¯¯¯¯¯¯¯¯¯¯¯¯¯¯¯¯¯¯¯¯¯¯¯¯¯¯¯¯¯¯¯¯¯¯¯¯¯¯¯¯¯¯¯¯¯¯¯¯¯¯¯¯¯¯¯¯¯¯¯¯¯¯¯¯¯¯¯¯¯¯¯¯¯¯¯

General
Format : Matroska
Format version : Version 4 / Version 2

File size : 2.87 GiB
Duration : 1 h 34 min

Overall bit rate : 4 365 kb/s

Movie name : Hitman 2007 Unrated de Xavier Gens avec Timothy Olyphant, Dougray Scott, Olga Kurylenko, Robert Knepper, Ulrich Thomsen, Henry Ian Cusick, Michael Offei. -12 ans (allocine=61318,imdb=tt0465494) T0M
Encoded date : UTC 2018-08-28 17:57:55

Writing application : mkvmerge v8.0.0 (‘Til The Day That I Die’) 64bit

Writing library : libebml v1.3.1 + libmatroska v1.4.2

Cover : Yes

Attachments : Cover.jpg / Cover2.jpg / Cover3.jpg

Video
ID : 1

Format : HEVC
Format/Info : High Efficiency Video Coding

Format profile : Main [email protected]@Main

Codec ID : V_MPEGH/ISO/HEVC

Duration : 1 h 34 min

Bit rate : 3 450 kb/s

Width : 1 920 pixels

Height : 822 pixels

Display aspect ratio : 2.35:1

Frame rate mode : Constant

Frame rate : 23.976 (24000/1001) FPS

Color space : YUV

Chroma subsampling : 4:2:0

Bit depth : 10 bits

Bits/(Pixel*Frame) : 0.091

Stream size : 2.27 GiB (79%)

Title : Video HEVC 1920×822 @23.976 x265 [email protected]@Main 10bits 3450kbps 2pass veryslow 1705mn
Writing library : x265 2.6:[Windows][GCC 7.3.0][64 bit] 10bit

Encoding settings : cpuid=1173503 / frame-threads=3 / numa-pools=8 / wpp / no-pmode / no-pme / no-psnr / no-ssim / log-level=2 / input-csp=1 / input-res=1920×822 / interlace=0 / total-frames=0 / level-idc=0 / high-tier=1 / uhd-bd=0 / ref=5 / no-allow-non-conformance / no-repeat-headers / annexb / no-aud / no-hrd / info / hash=0 / no-temporal-layers / open-gop / min-keyint=24 / keyint=240 / bframes=8 / b-adapt=2 / b-pyramid / bframe-bias=0 / rc-lookahead=40 / lookahead-slices=0 / scenecut=40 / no-intra-refresh / ctu=64 / min-cu-size=8 / rect / amp / max-tu-size=32 / tu-inter-depth=3 / tu-intra-depth=3 / limit-tu=4 / rdoq-level=2 / dynamic-rd=0.00 / no-ssim-rd / signhide / no-tskip / nr-intra=0 / nr-inter=0 / no-constrained-intra / strong-intra-smoothing / max-merge=4 / limit-refs=1 / limit-modes / me=3 / subme=4 / merange=57 / temporal-mvp / weightp / weightb / no-analyze-src-pics / deblock=0:0 / sao / no-sao-non-deblock / rd=6 / no-early-skip / rskip / no-fast-intra / no-tskip-fast / no-cu-lossless / b-intra / no-splitrd-skip / rdpenalty=0 / psy-rd=2.00 / psy-rdoq=1.00 / no-rd-refine / analysis-reuse-mode=0 / no-lossless / cbqpoffs=0 / crqpoffs=0 / rc=abr / bitrate=3450 / qcomp=0.60 / qpstep=4 / stats-write=0 / stats-Read=2 / cplxblur=20.0 / qblur=0.5 / ipratio=1.40 / pbratio=1.30 / aq-mode=1 / aq-strength=1.00 / cutree / zone-count=0 / no-strict-cbr / qg-size=32 / no-rc-grain / qpmax=69 / qpmin=0 / no-const-vbv / sar=1 / overscan=0 / videoformat=5 / range=0 / colorprim=1 / transfer=1 / colormatrix=1 / chromaloc=0 / display-window=0 / max-cll=0,0 / min-luma=0 / max-luma=1023 / log2-max-poc-lsb=8 / vui-timing-info / vui-hrd-info / slices=1 / no-opt-qp-pps / no-opt-ref-list-length-pps / no-multi-pass-opt-rps / scenecut-bias=0.05 / no-opt-cu-delta-qp / no-aq-motion / no-hdr / no-hdr-opt / no-dhdr10-opt / analysis-reuse-level=5 / scale-factor=0 / refine-intra=0 / refine-inter=0 / refine-mv=0 / no-limit-sao / ctu-info=0 / no-lowpass-dct / refine-mv-type=0 / copy-pic=1

Default : Yes

Forced : No

Color range : Limited

Color primaries : BT.709

Transfer characteristics : BT.709

Matrix coefficients : BT.709

Audio #1
ID : 2

Format : E-AC-3
Format/Info : Enhanced Audio Coding 3

Codec ID : A_EAC3

Duration : 1 h 34 min

Bit rate mode : Constant

Bit rate : 448 kb/s

Channel(s) : 6 channels

Channel positions : Front: L C R, Side: L R, LFE

Sampling rate : 48.0 kHz

Frame rate : 187.500 FPS (256 SPF)

Compression mode : Lossy

Delay relative to video : 5 ms

Stream size : 302 MiB (10%)

Title : Français 5.1 EAC3 448kbps 48khz 16bits
Language : French
Service kind : Complete Main

Default : Yes

Forced : No

Audio #2
ID : 3

Format : E-AC-3
Format/Info : Enhanced Audio Coding 3

Codec ID : A_EAC3

Duration : 1 h 34 min

Bit rate mode : Constant

Bit rate : 448 kb/s

Channel(s) : 6 channels

Channel positions : Front: L C R, Side: L R, LFE

Sampling rate : 48.0 kHz

Frame rate : 187.500 FPS (256 SPF)

Compression mode : Lossy

Delay relative to video : 5 ms

Stream size : 302 MiB (10%)

Title : English 5.1 EAC3 448kbps 48khz 16bits
Language : English
Service kind : Complete Main

Default : No

Forced : No

Text #1
ID : 4

Format : UTF-8
Codec ID : S_TEXT/UTF8

Codec ID/Info : UTF-8 Plain Text

Duration : 1 h 34 min

Bit rate : 3 b/s

Count of elements : 61

Stream size : 2.09 KiB (0%)

Title : Français forcé (Passages)
Language : French
Default : Yes

Forced : Yes

Text #2
ID : 5

Format : UTF-8
Codec ID : S_TEXT/UTF8

Codec ID/Info : UTF-8 Plain Text

Duration : 1 h 34 min

Bit rate : 38 b/s

Count of elements : 645

Stream size : 26.6 KiB (0%)

Title : Français complet (Tous le film)
Language : French
Default : No

Forced : No

Text #3
ID : 6

Format : PGS
Muxing mode : zlib

Codec ID : S_HDMV/PGS

Codec ID/Info : Picture based subtitle format used on BDs/HD-DVDs

Duration : 1 h 26 min

Bit rate : 647 b/s

Count of elements : 118

Stream size : 411 KiB (0%)

Title : Français forcé (Passages) PGS
Language : French
Default : No

Forced : No

Text #4
ID : 7

Format : PGS
Muxing mode : zlib

Codec ID : S_HDMV/PGS

Codec ID/Info : Picture based subtitle format used on BDs/HD-DVDs

Duration : 1 h 31 min

Bit rate : 7 607 b/s

Count of elements : 1289

Stream size : 4.96 MiB (0%)

Title : Français complet (Tous le film) PGS
Language : French
Default : No

Forced : No

Text #5
ID : 8

Format : PGS
Muxing mode : zlib

Codec ID : S_HDMV/PGS

Codec ID/Info : Picture based subtitle format used on BDs/HD-DVDs

Duration : 1 h 8 min

Bit rate : 392 b/s

Count of elements : 52

Stream size : 199 KiB (0%)

Title : English forced PGS
Language : English
Default : No

Forced : No

Text #6
ID : 9

Format : PGS
Muxing mode : zlib

Codec ID : S_HDMV/PGS

Codec ID/Info : Picture based subtitle format used on BDs/HD-DVDs

Duration : 1 h 29 min

Bit rate : 8 945 b/s

Count of elements : 1432

Stream size : 5.73 MiB (0%)

Title : English full SDH PGS
Language : English
Default : No

Forced : No

Menu
00:00:00.000 : :01 – 00:00:00

00:02:57.051 : :02 – 00:02:57

00:05:03.511 : :03 – 00:05:03

00:08:14.452 : :04 – 00:08:14

00:13:34.063 : :05 – 00:13:34

00:17:43.854 : :06 – 00:17:43

00:24:15.287 : :07 – 00:24:15

00:26:24.249 : :08 – 00:26:24

00:30:19.359 : :09 – 00:30:19

00:35:43.599 : :10 – 00:35:43

00:43:28.147 : :11 – 00:43:28

00:46:47.888 : :12 – 00:46:47

00:48:53.764 : :13 – 00:48:53

00:51:02.684 : :14 – 00:51:02

00:54:48.201 : :15 – 00:54:48

00:58:59.702 : :16 – 00:58:59

01:04:04.340 : :17 – 01:04:04

01:06:25.481 : :18 – 01:06:25

01:09:41.010 : :19 – 01:09:41

01:12:52.242 : :20 – 01:12:52

01:15:32.236 : :21 – 01:15:32

01:24:32.400 : :22 – 01:24:32

01:27:49.681 : :23 – 01:27:49

01:30:24.043 : :24 – 01:30:24

Hitman 2007 Unrated Bonus BR Download Torrent Magnet

#Hitman #Unrated #Bonus