Hardcore Henry [2015] 1080p B Full Torrent Magnet Download

Download Torrent Hardcore Henry [2015] 1080p B Movie Full in HD Result. Movie Hardcore Henry [2015] 1080p B Torrent Download full. Movie Hardcore Henry [2015] 1080p B torrent Magnet Download Full. Hardcore Henry [2015] 1080p B Full Movie Torrent Download And Magnet Download For your PC And Mobiles. Latest Movie Hardcore Henry [2015] 1080p B Download Link In Bottom.

Torrent And Magnet Links Below

Screenshot’s

Source :-

Encode :-

Media Information

Code:

General

Unique ID : 83516714153775123217317286164072058245 (0x3ED4BBEBA7A7D2A15BD33FE8374D4D85)

Complete name : Hardcore Henry [2015] 1080p BDRip DTS-HD MA 5.1 Kira [SEV].mkv

Format : Matroska

Format version : Version 4

File size : 13.3 GiB

Duration : 1 h 36 min

Overall bit rate mode : Variable

Overall bit rate : 19.7 Mb/s

Movie name : | Hardcore Henry [2015] | 1080p | x265 | DTS:HD MA 5.1 @ 4256 Kbps | Kira [SEV] |

Encoded date : UTC 2021-03-07 03:22:15

Writing application : mkvmerge v54.0.0 (‘F Maj Pixie’) 64-bit

Writing library : libebml v1.4.2 + libmatroska v1.6.3

Video

ID : 1

Format : HEVC

Format/Info : High Efficiency Video Coding

Format profile : Main [email protected]@High

Codec ID : V_MPEGH/ISO/HEVC

Duration : 1 h 36 min

Bit rate : 15.0 Mb/s

Width : 1 920 pixels

Height : 1 080 pixels

Display aspect ratio : 16:9

Frame rate mode : Constant

Frame rate : 23.976 (24000/1001) FPS

Color space : YUV

Chroma subsampling : 4:2:0

Bit depth : 10 bits

Bits/(Pixel*Frame) : 0.302

Stream size : 10.1 GiB (76%)

Title : | Hardcore Henry [2015] | 1080p | x265 | DTS:HD MA 5.1 @ 4256 Kbps | Kira [SEV] |

Writing library : x265 3.5_RC1:[Windows][MSVC 1928][64 bit] 10bit

Encoding settings : cpuid=1111039 / frame-threads=2 / numa-pools=4 / wpp / no-pmode / no-pme / no-psnr / no-ssim / log-level=2 / input-csp=1 / input-res=1920×1080 / interlace=0 / total-frames=139320 / level-idc=0 / high-tier=1 / uhd-bd=0 / ref=5 / no-allow-non-conformance / no-repeat-headers / annexb / no-aud / no-hrd / info / hash=0 / no-temporal-layers / open-gop / min-keyint=23 / keyint=250 / gop-lookahead=0 / bframes=16 / b-adapt=2 / b-pyramid / bframe-bias=0 / rc-lookahead=100 / lookahead-slices=0 / scenecut=40 / hist-scenecut=0 / radl=0 / no-splice / no-intra-refresh / ctu=64 / min-cu-size=8 / no-rect / no-amp / max-tu-size=32 / tu-inter-depth=4 / tu-intra-depth=4 / limit-tu=4 / rdoq-level=2 / dynamic-rd=0.00 / no-ssim-rd / signhide / no-tskip / nr-intra=0 / nr-inter=0 / no-constrained-intra / no-strong-intra-smoothing / max-merge=4 / limit-refs=1 / limit-modes / me=3 / subme=7 / merange=92 / temporal-mvp / no-frame-dup / no-hme / weightp / weightb / no-analyze-src-pics / deblock=0:0 / no-sao / no-sao-non-deblock / rd=6 / selective-sao=0 / no-early-skip / rskip / no-fast-intra / no-tskip-fast / no-cu-lossless / b-intra / no-splitrd-skip / rdpenalty=0 / psy-rd=2.00 / psy-rdoq=1.00 / no-rd-refine / no-lossless / cbqpoffs=0 / crqpoffs=0 / rc=abr / bitrate=15000 / qcomp=0.60 / qpstep=4 / stats-write=0 / stats-read=2 / cplxblur=20.0 / qblur=0.5 / ipratio=1.40 / pbratio=1.30 / aq-mode=3 / aq-strength=1.50 / cutree / zone-count=0 / no-strict-cbr / qg-size=32 / no-rc-grain / qpmax=69 / qpmin=0 / no-const-vbv / sar=0 / overscan=0 / videoformat=5 / range=0 / colorprim=2 / transfer=2 / colormatrix=2 / chromaloc=0 / display-window=0 / cll=0,0 / min-luma=0 / max-luma=1023 / log2-max-poc-lsb=8 / vui-timing-info / vui-hrd-info / slices=1 / no-opt-qp-pps / no-opt-ref-list-length-pps / no-multi-pass-opt-rps / scenecut-bias=0.05 / hist-threshold=0.03 / no-opt-cu-delta-qp / no-aq-motion / no-hdr10 / no-hdr10-opt / no-dhdr10-opt / no-idr-recovery-sei / analysis-reuse-level=0 / analysis-save-reuse-level=0 / analysis-load-reuse-level=0 / scale-factor=0 / refine-intra=0 / refine-inter=0 / refine-mv=1 / refine-ctu-distortion=0 / no-limit-sao / ctu-info=0 / no-lowpass-dct / refine-analysis-type=0 / copy-pic=1 / max-ausize-factor=1.0 / no-dynamic-refine / no-single-sei / no-hevc-aq / no-svt / no-field / qp-adaptation-range=1.00 / scenecut-aware-qp=0conformance-window-offsets / right=0 / bottom=0 / decoder-max-rate=0 / no-vbv-live-multi-pass

Language : English

Default : Yes

Forced : No

Audio #1

ID : 2

Format : DTS XLL

Format/Info : Digital Theater Systems

Commercial name : DTS-HD Master Audio

Codec ID : A_DTS

Duration : 1 h 36 min

Bit rate mode : Variable

Bit rate : 4 256 kb/s

Channel(s) : 6 channels

Channel layout : C L R Ls Rs LFE

Sampling rate : 48.0 kHz

Frame rate : 93.750 FPS (512 SPF)

Bit depth : 24 bits

Compression mode : Lossless

Stream size : 2.88 GiB (22%)

Title : English BD DTS:HD MA DD_5.1 @ 4256 Kbps

Language : English

Default : Yes

Forced : No

Audio #2

ID : 3

Format : AC-3

Format/Info : Audio Coding 3

Commercial name : Dolby Digital

Codec ID : A_AC3

Duration : 1 h 36 min

Bit rate mode : Constant

Bit rate : 192 kb/s

Channel(s) : 2 channels

Channel layout : L R

Sampling rate : 48.0 kHz

Frame rate : 31.250 FPS (1536 SPF)

Compression mode : Lossy

Stream size : 133 MiB (1%)

Title : Commentary by Ilya Naishuller

Language : English

Service kind : Complete Main

Default : No

Forced : No

Audio #3

ID : 4

Format : AC-3

Format/Info : Audio Coding 3

Commercial name : Dolby Digital

Codec ID : A_AC3

Duration : 1 h 36 min

Bit rate mode : Constant

Bit rate : 192 kb/s

Channel(s) : 2 channels

Channel layout : L R

Sampling rate : 48.0 kHz

Frame rate : 31.250 FPS (1536 SPF)

Compression mode : Lossy

Stream size : 133 MiB (1%)

Title : Commentary by Ilya Naishuller/Sharlto Copley

Language : English

Service kind : Complete Main

Default : No

Forced : No

Text #1

ID : 5

Format : PGS

Codec ID : S_HDMV/PGS

Codec ID/Info : Picture based subtitle format used on BDs/HD-DVDs

Duration : 1 h 32 min

Bit rate : 28.0 kb/s

Count of elements : 2086

Stream size : 18.6 MiB (0%)

Title : English SDH BD PGS Sub

Language : English

Default : Yes

Forced : No

Text #2

ID : 6

Format : PGS

Codec ID : S_HDMV/PGS

Codec ID/Info : Picture based subtitle format used on BDs/HD-DVDs

Duration : 1 h 35 min

Bit rate : 17.7 kb/s

Count of elements : 1441

Stream size : 12.1 MiB (0%)

Title : Spanish (Latin American) BD PGS Sub

Language : Spanish

Default : No

Forced : No

Text #3

ID : 7

Format : PGS

Codec ID : S_HDMV/PGS

Codec ID/Info : Picture based subtitle format used on BDs/HD-DVDs

Duration : 1 h 35 min

Bit rate : 18.5 kb/s

Count of elements : 1451

Stream size : 12.6 MiB (0%)

Title : French BD PGS Sub

Language : French

Default : No

Forced : No

Menu

00:00:00.000 : en:Chapter 1

00:04:04.494 : en:Chapter 2

00:08:36.641 : en:Chapter 3

00:14:12.935 : en:Chapter 4

00:18:45.332 : en:Chapter 5

00:22:38.815 : en:Chapter 6

00:26:12.237 : en:Chapter 7

00:30:05.345 : en:Chapter 8

00:34:30.193 : en:Chapter 9

00:37:44.428 : en:Chapter 10

00:42:19.537 : en:Chapter 11

00:47:05.405 : en:Chapter 12

00:52:51.084 : en:Chapter 13

00:56:00.482 : en:Chapter 14

01:03:47.824 : en:Chapter 15

01:11:23.988 : en:Chapter 16

01:15:54.883 : en:Chapter 17

01:22:04.669 : en:Chapter 18

01:24:10.045 : en:Chapter 19

01:29:31.115 : en:Chapter 20

Source Information

Hardcore.Henry.2015.BluRay.1080p.DTS-HD.MA.5.1.AVC.REMUX-FraMeSToR (26 GB)

Code:

General

Unique ID : 194491689344868346018976626005199889162 (0x9251BCA1D5395D401E27038FF3A1230A)

Complete name : Hardcore.Henry.2015.BluRay.1080p.DTS-HD.MA.5.1.AVC.REMUX-FraMeSToR.mkv

Format : Matroska

Format version : Version 4

File size : 26.0 GiB

Duration : 1 h 36 min

Overall bit rate mode : Variable

Overall bit rate : 38.4 Mb/s

Movie name : Hardcore Henry

Encoded date : UTC 2016-07-14 16:14:44

Writing application : mkvmerge v9.3.1 (‘Mask Machine’) 64bit

Writing library : libebml v1.3.4 + libmatroska v1.4.5

Video

ID : 1

Format : AVC

Format/Info : Advanced Video Codec

Format profile : [email protected]
Format settings : CABAC / 4 Ref Frames

Format settings, CABAC : Yes

Format settings, Reference : 4 frames

Format settings, GOP : M=3, N=12

Codec ID : V_MPEG4/ISO/AVC

Duration : 1 h 36 min

Bit rate mode : Variable

Bit rate : 33.7 Mb/s

Maximum bit rate : 37.0 Mb/s

Width : 1 920 pixels

Height : 1 080 pixels

Display aspect ratio : 16:9

Frame rate mode : Constant

Frame rate : 23.976 (24000/1001) FPS

Color space : YUV

Chroma subsampling : 4:2:0

Bit depth : 8 bits

Scan type : Progressive

Bits/(Pixel*Frame) : 0.679

Stream size : 22.8 GiB (88%)

Default : Yes

Forced : No

Audio #1

ID : 2

Format : DTS XLL

Format/Info : Digital Theater Systems

Commercial name : DTS-HD Master Audio

Codec ID : A_DTS

Duration : 1 h 36 min

Bit rate mode : Variable

Bit rate : 4 256 kb/s

Channel(s) : 6 channels

Channel layout : C L R Ls Rs LFE

Sampling rate : 48.0 kHz

Frame rate : 93.750 FPS (512 SPF)

Bit depth : 24 bits

Compression mode : Lossless

Stream size : 2.88 GiB (11%)

Title : DTS-HD MA 5.1

Language : English

Default : Yes

Forced : No

Audio #2

ID : 3

Format : AC-3

Format/Info : Audio Coding 3

Commercial name : Dolby Digital

Codec ID : A_AC3

Duration : 1 h 36 min

Bit rate mode : Constant

Bit rate : 192 kb/s

Channel(s) : 2 channels

Channel layout : L R

Sampling rate : 48.0 kHz

Frame rate : 31.250 FPS (1536 SPF)

Compression mode : Lossy

Stream size : 133 MiB (0%)

Title : Commentary by Ilya Naishuller

Language : English

Service kind : Complete Main

Default : No

Forced : No

Audio #3

ID : 4

Format : AC-3

Format/Info : Audio Coding 3

Commercial name : Dolby Digital

Codec ID : A_AC3

Duration : 1 h 36 min

Bit rate mode : Constant

Bit rate : 192 kb/s

Channel(s) : 2 channels

Channel layout : L R

Sampling rate : 48.0 kHz

Frame rate : 31.250 FPS (1536 SPF)

Compression mode : Lossy

Stream size : 133 MiB (0%)

Title : Commentary by Ilya Naishuller/Sharlto Copley

Language : English

Service kind : Complete Main

Default : No

Forced : No

Text #1

ID : 5

Format : PGS

Codec ID : S_HDMV/PGS

Codec ID/Info : Picture based subtitle format used on BDs/HD-DVDs

Duration : 1 h 32 min

Bit rate : 28.0 kb/s

Count of elements : 2086

Stream size : 18.6 MiB (0%)

Title : English (SDH)

Language : English

Default : Yes

Forced : No

Text #2

ID : 6

Format : PGS

Codec ID : S_HDMV/PGS

Codec ID/Info : Picture based subtitle format used on BDs/HD-DVDs

Duration : 1 h 35 min

Bit rate : 17.7 kb/s

Count of elements : 1441

Stream size : 12.1 MiB (0%)

Title : Spanish (Latin American)

Language : Spanish

Default : No

Forced : No

Text #3

ID : 7

Format : PGS

Codec ID : S_HDMV/PGS

Codec ID/Info : Picture based subtitle format used on BDs/HD-DVDs

Duration : 1 h 35 min

Bit rate : 18.5 kb/s

Count of elements : 1451

Stream size : 12.6 MiB (0%)

Title : French

Language : French

Default : No

Forced : No

Menu

00:00:00.000 : en:Chapter 1

00:04:04.494 : en:Chapter 2

00:08:36.641 : en:Chapter 3

00:14:12.935 : en:Chapter 4

00:18:45.332 : en:Chapter 5

00:22:38.815 : en:Chapter 6

00:26:12.237 : en:Chapter 7

00:30:05.345 : en:Chapter 8

00:34:30.193 : en:Chapter 9

00:37:44.428 : en:Chapter 10

00:42:19.537 : en:Chapter 11

00:47:05.405 : en:Chapter 12

00:52:51.084 : en:Chapter 13

00:56:00.482 : en:Chapter 14

01:03:47.824 : en:Chapter 15

01:11:23.988 : en:Chapter 16

01:15:54.883 : en:Chapter 17

01:22:04.669 : en:Chapter 18

01:24:10.045 : en:Chapter 19

01:29:31.115 : en:Chapter 20

We have no issue with individuals posting or re-uploading our torrents on a platform we aren’t on. However, if this is something you’d like to do, please do so in a ‘as-is’ format. We ask that you do not create a new torrent, include all descriptions you see above including the SEV logo, tags, notes and screenshots. If you’d like to become a permanent poster on a website we don’t post to, feel free to get in contact with a Sublime Encoded Video member.

We are recruiting/training new members for SEV & seedbox providers as well as people to help out with subtitles.

As you already know, we deliver quality, so you know the standard.

If you’re interested, feel free to contact any of the team members.

Hardcore Henry [2015] 1080p BDownload Torrent Magnet

#Hardcore #Henry #1080p