Halston.S01E01-05.1080p.NF.WE Full Torrent Magnet Download

Download Torrent Halston.S01E01-05.1080p.NF.WE Movie Full in HD Result. Movie Halston.S01E01-05.1080p.NF.WE Torrent Download full. Movie Halston.S01E01-05.1080p.NF.WE torrent Magnet Download Full. Halston.S01E01-05.1080p.NF.WE Full Movie Torrent Download And Magnet Download For your PC And Mobiles. Latest Movie Halston.S01E01-05.1080p.NF.WE Download Link In Bottom.

Torrent And Magnet Links Below

DATI – TRAMA

Paese: Stati Uniti

Anno: 2021

Formato: miniserie TV

Genere: biografico

Puntate: 5

Durata: 45 min

Lingua originale: inglese

Rapporto: 2,35:1

IMMAGINI



REPORT

General

Unique ID : 265693322987754715939771558705565984821 (0xC7E2AC348864600517F7F626F74AE835)

Complete name : C:UsersAdministratorVideosHalston S01Ep 01-05 1080pHalston.S01E01.Becoming.Halston.1080p.NF.WEBRip.ITA.ENG.DDP5.1.x264-BlackBit.mkv

Format : Matroska

Format version : Version 4

File size : 1.32 GiB

Duration : 46 min 45 s

Overall bit rate mode : Variable

Overall bit rate : 4 031 kb/s

Encoded date : UTC 2021-05-26 13:17:27

Writing application : mkvmerge v55.0.0 (‘Waiting For Space’) 64-bit

Writing library : libebml v1.4.2 + libmatroska v1.6.4

Video

ID : 1

Format : AVC

Format/Info : Advanced Video Codec

Format profile : [email protected]
Format settings : CABAC / 4 Ref Frames

Format settings, CABAC : Yes

Format settings, Reference : 4 frames

Codec ID : V_MPEG4/ISO/AVC

Duration : 46 min 44 s

Bit rate mode : Variable

Bit rate : 2 621 kb/s

Maximum bit rate : 20.0 Mb/s

Width : 1 920 pixels

Height : 1 080 pixels

Display aspect ratio : 16:9

Frame rate mode : Constant

Frame rate : 23.976 (24000/1001) FPS

Color space : YUV

Chroma subsampling : 4:2:0

Bit depth : 8 bits

Scan type : Progressive

Bits/(Pixel*Frame) : 0.053

Stream size : 877 MiB (65%)

Writing library : x264 core 148 r2722 1b0121b

Encoding settings : cabac=1 / ref=4 / deblock=1:0:0 / analyse=0x3:0x111 / me=umh / subme=10 / psy=1 / psy_rd=1.00:0.00 / mixed_ref=1 / me_range=120 / chroma_me=1 / trellis=2 / 8x8dct=1 / cqm=0 / deadzone=21,11 / fast_pskip=1 / chroma_qp_offset=-2 / threads=6 / lookahead_threads=1 / sliced_threads=0 / nr=0 / decimate=1 / interlaced=0 / bluray_compat=0 / stitchable=1 / constrained_intra=0 / bframes=16 / b_pyramid=2 / b_adapt=2 / b_bias=0 / direct=3 / weightb=1 / open_gop=0 / weightp=2 / keyint=240 / keyint_min=121 / scenecut=0 / intra_refresh=0 / rc_lookahead=240 / rc=crf / mbtree=1 / crf=17.0 / qcomp=0.50 / qpmin=6 / qpmax=51 / qpstep=4 / vbv_maxrate=20000 / vbv_bufsize=25000 / crf_max=0.0 / nal_hrd=vbr / filler=0 / ip_ratio=1.40 / aq=1:0.80

Default : Yes

Forced : Yes

Audio #1

ID : 2

Format : E-AC-3

Format/Info : Enhanced AC-3

Commercial name : Dolby Digital Plus

Codec ID : A_EAC3

Duration : 46 min 45 s

Bit rate mode : Constant

Bit rate : 640 kb/s

Channel(s) : 6 channels

Channel layout : L R C LFE Ls Rs

Sampling rate : 48.0 kHz

Frame rate : 31.250 FPS (1536 SPF)

Compression mode : Lossy

Stream size : 214 MiB (16%)

Language : Italian

Service kind : Complete Main

Default : Yes

Forced : Yes

Audio #2

ID : 3

Format : E-AC-3 JOC

Format/Info : Enhanced AC-3 with Joint Object Coding

Commercial name : Dolby Digital Plus with Dolby Atmos

Codec ID : A_EAC3

Duration : 46 min 45 s

Bit rate mode : Constant

Bit rate : 768 kb/s

Channel(s) : 6 channels

Channel layout : L R C LFE Ls Rs

Sampling rate : 48.0 kHz

Frame rate : 31.250 FPS (1536 SPF)

Compression mode : Lossy

Stream size : 257 MiB (19%)

Title : English

Language : English

Service kind : Complete Main

Default : No

Forced : No

Complexity index : 16

Number of dynamic objects : 15

Bed channel count : 1 channel

Bed channel configuration : LFE

Text #1

ID : 4

Format : UTF-8

Codec ID : S_TEXT/UTF8

Codec ID/Info : UTF-8 Plain Text

Duration : 45 min 18 s

Bit rate : 0 b/s

Count of elements : 6

Stream size : 172 Bytes (0%)

Language : Italian

Default : Yes

Forced : Yes

Text #2

ID : 5

Format : UTF-8

Codec ID : S_TEXT/UTF8

Codec ID/Info : UTF-8 Plain Text

Duration : 45 min 18 s

Bit rate : 54 b/s

Count of elements : 494

Stream size : 18.1 KiB (0%)

Title : Italian

Language : Italian

Default : No

Forced : No

GOOD DOWNLOAD

Halston.S01E01-05.1080p.NF.WEDownload Torrent Magnet

#HalstonS01E01051080pNFWE