Hachi.A.Dog.S.Tale – Hachiko. Full Torrent Magnet Download

Download Torrent Hachi.A.Dog.S.Tale – Hachiko. Movie Full in HD Result. Movie Hachi.A.Dog.S.Tale – Hachiko. Torrent Download full. Movie Hachi.A.Dog.S.Tale – Hachiko. torrent Magnet Download Full. Hachi.A.Dog.S.Tale – Hachiko. Full Movie Torrent Download And Magnet Download For your PC And Mobiles. Latest Movie Hachi.A.Dog.S.Tale – Hachiko. Download Link In Bottom.

Torrent And Magnet Links Below


Hachiko – Il Tuo Migliore Amico


Titolo originale: Hachi: A Dog’s Tale

Genere: Drammatico

Anno: 2009

Regia: Lasse Hallström

Attori: Richard Gere, Joan Allen, Jason Alexander, Cary-Hiroyuki Tagawa, Erick Avari, Davenia McFadden, Sarah Roemer, Kevin DeCoste, Robbie Sublett, Donna Sorbello, Tora Hallstrom, Bates Wilder, Denece Ryland

Paese: USA

Durata: 93 min

Distribuzione: Lucky Red

Sceneggiatura: Stephen P. Lindsey, Kaneto Shindô

Fotografia: Ron Fortunato

Montaggio: Kristina Boden

Musiche: Jan A.P. Kaczmarek

Produzione: Grand Army Entertainment, Inferno Distribution, Shochiku Kinema Kenkyû-jo


Hachiko – il tuo migliore amico è un film del 2009 diretto da Lasse Hallström, basato su una storia vera, che racconta il legame affettivo tra un cane e il suo padrone.

La storia è narrata da Ronnie, il nipote del protagonista.

Quando a scuola Ronnie viene invitato a descrivere quale sia il proprio eroe, decide appunto di raccontare la storia del cane del nonno: Hachiko.

Il professor Parker Wilson (Richard Gere), trova un cucciolo smarrito che è stato trasportato negli Stati Uniti dal Giappone ma accidentalmente lasciato alla stazione ferroviaria della piccola città natale del professore.

Nell’attesa di trovare il legittimo proprietario, decide di portare a casa il cucciolo: nasce così tra l’uomo e il cane un legame molto stretto.

Hachiko non sembra un cane normale: non ama giocare con la palla o rincorrere gatti, ma in compenso dimostra nei confronti del padrone un affetto fuori dal comune.

L’uomo una mattina va a lavoro, Hachiko lo segue alla stazione e si rifiuta di tornare a casa senza di lui, costringendo Parker a riportarlo indietro.

Il giorno successivo il cane segue nuovamente il suo nuovo padrone, che questa volta sale sul treno. Quando Parker ritorna alla stazione dopo il lavoro, è sorpreso di trovare Hachi che lo aspetta nello stesso punto in cui lo ha lasciato. Passano i giorni e Hachi impara gli orari di Parker, andando puntualmente alla stazione per aspettarlo alle 17:00.

Un avvenimento traumatico interromperà quella routine quotidiana ma non porrà fine alla fedeltà di Hachi verso il suo padrone nonché migliore amico.




General

Unique ID : 203622624492873233624938351720044046397 (0x99304A7E184604819E07BB4A7FFA283D)

Complete name : Hachiko.Il.Tuo.Migliore.Amico.2009.iTA.ENG.AC3.SUB.iTA.ENG.BluRay.1080p.x264.jeddak-MIRCrew.mkv

Format : Matroska

Format version : Version 2

File size : 2.24 GiB

Duration : 1 h 32 min

Overall bit rate : 3 446 kb/s

Movie name : Hachiko.Il.Tuo.Migliore.Amico.2009.iTA.ENG.AC3.SUB.iTA.ENG.BluRay.1080p.x264.jeddak-MIRCrew

Encoded date : UTC 2021-04-23 06:04:28

Writing application : mkvmerge v5.6.0 (‘Kenya Kane’) built on May 27 2012 16:44:04

Writing library : libebml v1.2.3 + libmatroska v1.3.0 / Lavf58.29.100

Video

ID : 1

Format : AVC

Format/Info : Advanced Video Codec

Format profile : [email protected]
Format settings : CABAC / 4 Ref Frames

Format settings, CABAC : Yes

Format settings, Reference : 4 frames

Codec ID : V_MPEG4/ISO/AVC

Duration : 1 h 32 min

Bit rate : 2 600 kb/s

Width : 1 920 pixels

Height : 1 036 pixels

Display aspect ratio : 1.85:1

Frame rate mode : Constant

Frame rate : 24.000 FPS

Color space : YUV

Chroma subsampling : 4:2:0

Bit depth : 8 bits

Scan type : Progressive

Bits/(Pixel*Frame) : 0.054

Stream size : 1.61 GiB (72%)

Title : …::: jeddak MIRCrew :::…

Writing library : x264 core 148

Encoding settings : cabac=1 / ref=3 / deblock=1:-1:-1 / analyse=0x3:0x113 / me=hex / subme=7 / psy=1 / psy_rd=1.00:0.15 / mixed_ref=1 / me_range=16 / chroma_me=1 / trellis=1 / 8x8dct=1 / cqm=0 / deadzone=21,11 / fast_pskip=1 / chroma_qp_offset=-3 / threads=6 / lookahead_threads=1 / sliced_threads=0 / nr=0 / decimate=1 / interlaced=0 / bluray_compat=0 / constrained_intra=0 / bframes=3 / b_pyramid=2 / b_adapt=1 / b_bias=0 / direct=1 / weightb=1 / open_gop=0 / weightp=2 / keyint=240 / keyint_min=24 / scenecut=40 / intra_refresh=0 / rc_lookahead=40 / rc=abr / mbtree=1 / bitrate=2600 / ratetol=1.0 / qcomp=0.60 / qpmin=0 / qpmax=69 / qpstep=4 / vbv_maxrate=62500 / vbv_bufsize=78125 / nal_hrd=none / filler=0 / ip_ratio=1.40 / aq=1:1.00

Default : Yes

Forced : No

Color range : Limited

Color primaries : BT.709

Transfer characteristics : BT.709

Matrix coefficients : BT.709

Audio #1

ID : 2

Format : AC-3

Format/Info : Audio Coding 3

Commercial name : Dolby Digital

Codec ID : A_AC3

Duration : 1 h 32 min

Bit rate mode : Constant

Bit rate : 448 kb/s

Channel(s) : 6 channels

Channel layout : L R C LFE Ls Rs

Sampling rate : 48.0 kHz

Frame rate : 31.250 FPS (1536 SPF)

Compression mode : Lossy

Delay relative to video : -5 ms

Stream size : 298 MiB (13%)

Title : iTA AC3 5.1

Language : Italian

Service kind : Complete Main

Default : Yes

Forced : No

Audio #2

ID : 3

Format : AC-3

Format/Info : Audio Coding 3

Commercial name : Dolby Digital

Codec ID : A_AC3

Duration : 1 h 32 min

Bit rate mode : Constant

Bit rate : 448 kb/s

Channel(s) : 6 channels

Channel layout : L R C LFE Ls Rs

Sampling rate : 48.0 kHz

Frame rate : 31.250 FPS (1536 SPF)

Compression mode : Lossy

Delay relative to video : -5 ms

Stream size : 298 MiB (13%)

Title : ENG AC3 5.1

Language : English

Service kind : Complete Main

Default : No

Forced : No

Text #1

ID : 4

Format : ASS

Codec ID : S_TEXT/ASS

Codec ID/Info : Advanced Sub Station Alpha

Duration : 1 h 28 min

Compression mode : Lossless

Title : iTA FORCED

Language : Italian

Default : Yes

Forced : Yes

Text #2

ID : 5

Format : ASS

Codec ID : S_TEXT/ASS

Codec ID/Info : Advanced Sub Station Alpha

Duration : 1 h 28 min

Compression mode : Lossless

Title : iTA NON UDENTI

Language : Italian

Default : No

Forced : No

Text #3

ID : 6

Format : ASS

Codec ID : S_TEXT/ASS

Codec ID/Info : Advanced Sub Station Alpha

Duration : 1 h 28 min

Compression mode : Lossless

Title : ENG NON UDENTI

Language : English

Default : No

Forced : No

Menu

00:00:00.000 : :Capitolo 01

00:10:18.458 : :Capitolo 02

00:15:32.500 : :Capitolo 03

00:22:13.042 : :Capitolo 04

00:30:31.000 : :Capitolo 05

00:36:24.292 : :Capitolo 06

00:43:59.458 : :Capitolo 07

00:51:11.042 : :Capitolo 08

00:58:24.083 : :Capitolo 09

01:07:02.917 : :Capitolo 10

01:17:05.417 : :Capitolo 11

01:23:50.250 : :Capitolo 12

Hachi.A.Dog.S.Tale – Hachiko.Download Torrent Magnet

#HachiADogSTale #Hachiko