Great British Railway Journey Full Torrent Magnet Download

Download Torrent Great British Railway Journey Movie Full in HD Result. Movie Great British Railway Journey Torrent Download full. Movie Great British Railway Journey torrent Magnet Download Full. Great British Railway Journey Full Movie Torrent Download And Magnet Download For your PC And Mobiles. Latest Movie Great British Railway Journey Download Link In Bottom.

Torrent And Magnet Links Below

Great British Railway Journeys S13E07 Hackney Wick to Oxford Circus (1280x720p HD, 50fps, soft Eng subs)

Michael continues his travels through the capital in the heart of London’s East End. Michael explores Hackney Wick, today transformed from the time of his 1930s Bradshaw’s guide, when factories belched smoke and the Communist Party of Great Britain launched The Daily Worker. Michael hears about the newspaper’s origins and aims from the editor of its modern incarnation, The Morning Star. / / A bout in the ring at Repton Boxing Club has Michael floating like a butterfly – if not stinging like a bee – as he discovers one of Britain’s greatest fighters, Ted ‘Kid’ Lewis. Michael is captivated by the story of the Jewish refugee from the Russian pogroms, who twice became welterweight champion of the world. / / A night at one of the earliest railway hotels, the Great Northern, sets the scene for Michael to explore the railway revolution of the interwar years, when around 150 companies were rationalised into the ‘big four’, heralding a golden age of glamour, speed and style. / / In the West End, Michael hunts down London’s oldest surviving Indian restaurant, Veeraswamy, to hear how it was established after its owner found success at the British Empire Exhibition in 1924. Under the watchful eye of the restaurant’s master chef, Michael learns how to make chapatis.

First broadcast: 25 May 2021

Duration: 30 minutes

Torrent dead? Request reseed at torrentgalaxy.org – or ask at elsonroa at tutanota.com

Media info:-

General

Format : MPEG-4

Format profile : Base Media

Codec ID : isom (isom/iso2/avc1/mp41)

File size : 1.03 GiB

Duration : 28mn 59s

Overall bit rate : 5 081 Kbps

Video

ID : 1

Format : AVC

Format/Info : Advanced Video Codec

Format profile : [email protected]
Format settings, CABAC : Yes

Format settings, ReFrames : 4 frames

Codec ID : avc1

Codec ID/Info : Advanced Video Coding

Duration : 28mn 59s

Bit rate : 4 945 Kbps

Width : 1 280 pixels

Height : 720 pixels

Display aspect ratio : 16:9

Frame rate mode : Constant

Frame rate : 50.000 fps

Color space : YUV

Chroma subsampling : 4:2:0

Bit depth : 8 bits

Scan type : Progressive

Bits/(Pixel*Frame) : 0.107

Stream size : 1.00 GiB (97%)

Encoded date : UTC 1904-01-01 00:00:00

Tagged date : UTC 1904-01-01 00:00:00

Color range : Limited

Color primaries : BT.709

Transfer characteristics : BT.709

Matrix coefficients : BT.709

Audio

ID : 2

Format : AAC

Format/Info : Advanced Audio Codec

Format profile : LC

Codec ID : 40

Duration : 28mn 59s

Bit rate mode : Constant

Bit rate : 128 Kbps

Channel(s) : 2 channels

Channel positions : Front: L R

Sampling rate : 48.0 KHz

Frame rate : 46.875 fps (1024 spf)

Compression mode : Lossy

Stream size : 26.5 MiB (3%)

Language : English

Great British Railway JourneyDownload Torrent Magnet

#Great #British #Railway #Journey