Great British Menu S16E14 Nor Full Torrent Magnet Download

Download Torrent Great British Menu S16E14 Nor Movie Full in HD Result. Movie Great British Menu S16E14 Nor Torrent Download full. Movie Great British Menu S16E14 Nor torrent Magnet Download Full. Great British Menu S16E14 Nor Full Movie Torrent Download And Magnet Download For your PC And Mobiles. Latest Movie Great British Menu S16E14 Nor Download Link In Bottom.

Torrent And Magnet Links Below

Great British Menu S16E14 North East Main and Dessert (1280x720p HD, 50fps, soft Eng subs)

The three chefs are halfway through their heat, and the competition couldn’t be tighter. Again, they each serve up their own interpretation of the brief to honour British invention and innovation. / / For their main courses, one chef is showcasing fallow deer in their dish celebrating the invention of cats eyes, while another pays homage to the imposing Humber Bridge with a dish that draws on the best ingredients to be found in the counties at either end of the bridge’s span: Yorkshire and Lincolnshire. The final chef is paying tribute to a miners’ lamp that saved many lives in the pits of the North East of England with a dish centred around mutton. Whose inventiveness in the kitchen will veteran judge Simon Rogan rate the highest? / / Only two will proceed to Friday’s judging and have a chance to represent the North East, Yorkshire and the Humber at the regional finals.

First broadcast: 22 April 2021

Duration: 1 hour

Torrent dead? Request reseed at torrentgalaxy.org – or ask at elsonroa at tutanota.com

Media info:-

General

Format : MPEG-4

Format profile : Base Media

Codec ID : isom (isom/iso2/avc1/mp41)

File size : 2.13 GiB

Duration : 59mn 0s

Overall bit rate mode : Variable

Overall bit rate : 5 165 Kbps

Video

ID : 1

Format : AVC

Format/Info : Advanced Video Codec

Format profile : [email protected]
Format settings, CABAC : Yes

Format settings, ReFrames : 4 frames

Codec ID : avc1

Codec ID/Info : Advanced Video Coding

Duration : 59mn 0s

Bit rate : 5 029 Kbps

Width : 1 280 pixels

Height : 720 pixels

Display aspect ratio : 16:9

Frame rate mode : Constant

Frame rate : 50.000 fps

Color space : YUV

Chroma subsampling : 4:2:0

Bit depth : 8 bits

Scan type : Progressive

Bits/(Pixel*Frame) : 0.109

Stream size : 2.07 GiB (97%)

Encoded date : UTC 1904-01-01 00:00:00

Tagged date : UTC 1904-01-01 00:00:00

Color range : Limited

Color primaries : BT.709

Transfer characteristics : BT.709

Matrix coefficients : BT.709

Audio

ID : 2

Format : AAC

Format/Info : Advanced Audio Codec

Format profile : LC

Codec ID : 40

Duration : 59mn 0s

Bit rate mode : Variable

Bit rate : 128 Kbps

Maximum bit rate : 139 Kbps

Channel(s) : 2 channels

Channel positions : Front: L R

Sampling rate : 48.0 KHz

Frame rate : 46.875 fps (1024 spf)

Compression mode : Lossy

Stream size : 54.0 MiB (2%)

Language : English

Default : Yes

Great British Menu S16E14 NorDownload Torrent Magnet

#Great #British #Menu #S16E14