Grandma’s Boy UNRATED (2006) Full Torrent Magnet Download

Download Torrent Grandma’s Boy UNRATED (2006) Movie Full in HD Result. Movie Grandma’s Boy UNRATED (2006) Torrent Download full. Movie Grandma’s Boy UNRATED (2006) torrent Magnet Download Full. Grandma’s Boy UNRATED (2006) Full Movie Torrent Download And Magnet Download For your PC And Mobiles. Latest Movie Grandma’s Boy UNRATED (2006) Download Link In Bottom.

Torrent And Magnet Links Below

Title: Grandma’s Boy UNRATED

Year Of Release: 2006

Genre: Comedy

Total Size: 2.19 GB

Movie Info

General
Unique ID                                : 94979381832017714464769202653186328182 (0x47745D1211C45229320C97B417F58676)

Complete name                            : D:Grandma’s Boy UNRATED (2006) HEVC 1080p-AAC 5.1Grandma’s Boy (2006) 1080p aac 5.1 djdezzie.mkv

Format                                   : Matroska

Format version                           : Version 4

File size                                : 2.20 GiB

Duration                                 : 1 h 35 min

Overall bit rate                         : 3 307 kb/s

Encoded date                             : UTC 2021-03-24 20:44:32

Writing application                      : Lavf58.29.100

Writing library                          : Lavf58.29.100

ErrorDetectionType                       : Per level 1


Video

ID                                       : 1

Format                                   : HEVC

Format/Info                              : High Efficiency Video Coding

Format profile                           : [email protected]@Main

Codec ID                                 : V_MPEGH/ISO/HEVC

Duration                                 : 1 h 35 min

Bit rate                                 : 4 016 kb/s

Width                                    : 1 920 pixels

Height                                   : 816 pixels

Display aspect ratio                     : 2.35:1

Frame rate mode                          : Constant

Frame rate                               : 23.976 (23976/1000) FPS

Color space                              : YUV

Chroma subsampling                       : 4:2:0

Bit depth                                : 8 bits

Bits/(Pixel*Frame)                       : 0.107

Stream size                              : 2.67 GiB

Writing library                          : Lavc58.54.100 hevc_nvenc

Language                                 : English

Default                                  : Yes

Forced                                   : No


Audio

ID                                       : 2

Format                                   : AAC LC

Format/Info                              : Advanced Audio Codec Low Complexity

Codec ID                                 : A_AAC-2

Duration                                 : 1 h 35 min

Bit rate                                 : 384 kb/s

Channel(s)                               : 6 channels

Channel layout                           : C L R Ls Rs LFE

Sampling rate                            : 48.0 kHz

Frame rate                               : 46.875 FPS (1024 SPF)

Compression mode                         : Lossy

Delay relative to video                  : -63 ms

Stream size                              : 261 MiB (12%)

Writing library                          : Lavc58.54.100 aac

Language                                 : English

Default                                  : Yes

Forced                                   : No

Menu
00:00:00.000                             : :Main Titles/Evicted by Yuri

00:04:28.000                             : :Weed Wedding Whack-Off

00:11:06.000                             : :Brainasium/Your Shit’s Weak

00:18:55.000                             : :New Roommates/Scardey-Cat

00:25:22.000                             : :The Levels…Not Sex

00:26:51.000                             : :You Dirty Dopers

00:29:14.000                             : :Dr.’s Deer Weed Munchies

00:32:03.000                             : :Crazy Orgies

00:35:33.000                             : :New Cable, New Vase

00:38:21.000                             : :Dance Dance Revolution

00:40:44.000                             : :Robot Ears

00:45:20.000                             : :Grandma Visits/Dildo Lunch

00:47:39.000                             : :Good Things Are Coming

00:52:40.000                             : :Our Lady Health vs. Tommy’s Burger

00:54:46.000                             : :Sophie’s Tea & Spanish Television

00:59:09.000                             : :Frankenstein Party Starter

01:02:50.000                             : :Baby’s Milk/Push It

01:07:40.000                             : :Hangover Photos/3000…?

01:12:20.000                             : :Ingesting More Fuel (JP’s Malfunction)

01:17:42.000                             : :Monkey Meets Mr. Lee Ho

01:19:22.000                             : :Fuck Energy

01:22:18.000                             : :Looney Bin Joint/Sam Finds Proof

01:25:18.000                             : :Conference Room Deathmatch

01:28:24.000                             : :6 Months Later…/End Titles

Grandma’s Boy UNRATED (2006) Download Torrent Magnet

#Grandmas #Boy #UNRATED