Grand Prix (1966) – BluRay Mu Full Torrent Magnet Download

Download Torrent Grand Prix (1966) – BluRay Mu Movie Full in HD Result. Movie Grand Prix (1966) – BluRay Mu Torrent Download full. Movie Grand Prix (1966) – BluRay Mu torrent Magnet Download Full. Grand Prix (1966) – BluRay Mu Full Movie Torrent Download And Magnet Download For your PC And Mobiles. Latest Movie Grand Prix (1966) – BluRay Mu Download Link In Bottom.

Torrent And Magnet Links Below

Grand Prix (1966) in 1080p HEVC.

American Grand Prix driver Pete Aron is fired by his Jordan-BRM racing team after a crash at Monaco that injures his British teammate, Scott Stoddard. While Stoddard struggles to recover, Aron begins to drive for the Japanese Yamura team, and becomes romantically involved with Stoddard’s estranged wife.

Director: John Frankenheimer

Writers: Robert Alan Aurthur (screen story), Robert Alan Aurthur (screenplay)

Stars: James Garner, Eva Marie Saint, Yves Montand

Audios: English, Portuguese, Spanish, French, German.

Subs: English, Portuguese, Spanish, French, German, Dutch, Greek, Hungarian, Japanese, Polish, Turkish.

General

Unique ID : 218600056875099488022352897152744945500 (0xA474D6EBF7377BB5DA6F21183633F75C)

Complete name : D:MotoGPuTorrentGrand Prix (1966) – BluRay MultiAudio 1080p h265-deefGrand Prix (1966) (2334mb 1920×868 1810kbps h265 deef).mkv

Format : Matroska

Format version : Version 4

File size : 2.27 GiB

Duration : 2 h 55 min

Overall bit rate : 1 846 kb/s

Movie name : Grand.Prix.1966

Encoded date : UTC 2021-03-12 08:39:47

Writing application : mkvmerge v53.0.0 (‘Fool’s Gold’) 64-bit

Writing library : libebml v1.4.1 + libmatroska v1.6.2 / Lavf58.29.100

Video

ID : 1

Format : HEVC

Format/Info : High Efficiency Video Coding

Format profile : [email protected]@Main

Codec ID : V_MPEGH/ISO/HEVC

Duration : 2 h 55 min

Bit rate : 1 049 kb/s

Width : 1 920 pixels

Height : 868 pixels

Display aspect ratio : 2.2:1

Frame rate mode : Constant

Frame rate : 23.976 (24000/1001) FPS

Color space : YUV

Chroma subsampling : 4:2:0

Bit depth : 8 bits

Bits/(Pixel*Frame) : 0.026

Stream size : 1.29 GiB (57%)

Writing library : x265 3.2.1+1-b5c86a64bbbe:[Windows][GCC 9.2.0][64 bit] 8bit+10bit+12bit

Encoding settings : cpuid=1111039 / frame-threads=3 / numa-pools=12 / wpp / no-pmode / no-pme / no-psnr / no-ssim / log-level=2 / input-csp=1 / input-res=1920×868 / interlace=0 / total-frames=0 / level-idc=0 / high-tier=1 / uhd-bd=0 / ref=2 / no-allow-non-conformance / no-repeat-headers / annexb / no-aud / no-hrd / info / hash=0 / no-temporal-layers / open-gop / min-keyint=24 / keyint=240 / gop-lookahead=0 / bframes=4 / b-adapt=0 / b-pyramid / bframe-bias=0 / rc-lookahead=15 / lookahead-slices=5 / scenecut=40 / radl=0 / no-splice / no-intra-refresh / ctu=64 / min-cu-size=8 / no-rect / no-amp / max-tu-size=32 / tu-inter-depth=1 / tu-intra-depth=1 / limit-tu=0 / rdoq-level=0 / dynamic-rd=0.00 / no-ssim-rd / signhide / no-tskip / nr-intra=0 / nr-inter=0 / no-constrained-intra / no-strong-intra-smoothing / max-merge=2 / limit-refs=3 / no-limit-modes / me=1 / subme=2 / merange=57 / temporal-mvp / no-hme / weightp / no-weightb / no-analyze-src-pics / deblock=0:0 / sao / no-sao-non-deblock / rd=2 / selective-sao=4 / early-skip / rskip / fast-intra / no-tskip-fast / no-cu-lossless / no-b-intra / no-splitrd-skip / rdpenalty=0 / psy-rd=2.00 / psy-rdoq=0.00 / no-rd-refine / no-lossless / cbqpoffs=0 / crqpoffs=0 / rc=crf / crf=27.0 / qcomp=0.60 / qpstep=4 / stats-write=0 / stats-read=0 / ipratio=1.40 / pbratio=1.30 / aq-mode=1 / aq-strength=1.00 / cutree / zone-count=0 / no-strict-cbr / qg-size=32 / no-rc-grain / qpmax=69 / qpmin=0 / no-const-vbv / sar=1 / overscan=0 / videoformat=5 / range=0 / colorprim=1 / transfer=1 / colormatrix=1 / chromaloc=0 / display-window=0 / cll=0,0 / min-luma=0 / max-luma=255 / log2-max-poc-lsb=8 / vui-timing-info / vui-hrd-info / slices=1 / no-opt-qp-pps / no-opt-ref-list-length-pps / no-multi-pass-opt-rps / scenecut-bias=0.05 / no-opt-cu-delta-qp / no-aq-motion / no-hdr / no-hdr-opt / no-dhdr10-opt / no-idr-recovery-sei / analysis-reuse-level=5 / scale-factor=0 / refine-intra=0 / refine-inter=0 / refine-mv=1 / refine-ctu-distortion=0 / no-limit-sao / ctu-info=0 / no-lowpass-dct / refine-analysis-type=0 / copy-pic=1 / max-ausize-factor=1.0 / no-dynamic-refine / no-single-sei / no-hevc-aq / no-svt / no-field / qp-adaptation-range=1.00

Default : Yes

Forced : No

Color range : Limited

Color primaries : BT.709

Transfer characteristics : BT.709

Matrix coefficients : BT.709

Audio #1

ID : 2

Format : AAC LC

Format/Info : Advanced Audio Codec Low Complexity

Codec ID : A_AAC-2

Duration : 2 h 55 min

Bit rate : 160 kb/s

Channel(s) : 2 channels

Channel layout : L R

Sampling rate : 48.0 kHz

Frame rate : 46.875 FPS (1024 SPF)

Compression mode : Lossy

Delay relative to video : -21 ms

Stream size : 202 MiB (9%)

Title : Stereo

Language : English

Default : Yes

Forced : No

Audio #2

ID : 3

Format : AAC LC

Format/Info : Advanced Audio Codec Low Complexity

Codec ID : A_AAC-2

Duration : 2 h 55 min

Bit rate : 159 kb/s

Channel(s) : 1 channel

Channel layout : C

Sampling rate : 48.0 kHz

Frame rate : 46.875 FPS (1024 SPF)

Compression mode : Lossy

Delay relative to video : -21 ms

Stream size : 200 MiB (9%)

Title : Mono

Language : Portuguese

Default : No

Forced : No

Audio #3

ID : 4

Format : AAC LC

Format/Info : Advanced Audio Codec Low Complexity

Codec ID : A_AAC-2

Duration : 2 h 55 min

Bit rate : 161 kb/s

Channel(s) : 2 channels

Channel layout : L R

Sampling rate : 48.0 kHz

Frame rate : 46.875 FPS (1024 SPF)

Compression mode : Lossy

Delay relative to video : -21 ms

Stream size : 202 MiB (9%)

Title : Stereo

Language : Spanish

Default : No

Forced : No

Audio #4

ID : 5

Format : AAC LC

Format/Info : Advanced Audio Codec Low Complexity

Codec ID : A_AAC-2

Duration : 2 h 55 min

Bit rate : 156 kb/s

Channel(s) : 1 channel

Channel layout : C

Sampling rate : 48.0 kHz

Frame rate : 46.875 FPS (1024 SPF)

Compression mode : Lossy

Delay relative to video : -21 ms

Stream size : 197 MiB (8%)

Title : Mono

Language : French

Default : No

Forced : No

Audio #5

ID : 6

Format : AAC LC

Format/Info : Advanced Audio Codec Low Complexity

Codec ID : A_AAC-2

Duration : 2 h 55 min

Bit rate : 154 kb/s

Channel(s) : 1 channel

Channel layout : C

Sampling rate : 48.0 kHz

Frame rate : 46.875 FPS (1024 SPF)

Compression mode : Lossy

Delay relative to video : -21 ms

Stream size : 193 MiB (8%)

Title : Mono

Language : German

Default : No

Forced : No

Text #1

ID : 7

Format : UTF-8

Codec ID : S_TEXT/UTF8

Codec ID/Info : UTF-8 Plain Text

Duration : 2 h 51 min

Bit rate : 41 b/s

Count of elements : 1603

Stream size : 52.4 KiB (0%)

Default : Yes

Forced : No

Text #2

ID : 8

Format : UTF-8

Codec ID : S_TEXT/UTF8

Codec ID/Info : UTF-8 Plain Text

Duration : 2 h 53 min

Bit rate : 47 b/s

Count of elements : 1547

Stream size : 60.0 KiB (0%)

Default : No

Forced : No

Text #3

ID : 9

Format : UTF-8

Codec ID : S_TEXT/UTF8

Codec ID/Info : UTF-8 Plain Text

Duration : 2 h 50 min

Bit rate : 74 b/s

Count of elements : 1584

Stream size : 93.6 KiB (0%)

Default : No

Forced : No

Text #4

ID : 10

Format : UTF-8

Codec ID : S_TEXT/UTF8

Codec ID/Info : UTF-8 Plain Text

Duration : 2 h 55 min

Bit rate : 52 b/s

Count of elements : 1553

Stream size : 67.1 KiB (0%)

Default : No

Forced : No

Text #5

ID : 11

Format : UTF-8

Codec ID : S_TEXT/UTF8

Codec ID/Info : UTF-8 Plain Text

Duration : 1 h 37 min

Bit rate : 79 b/s

Count of elements : 974

Stream size : 56.5 KiB (0%)

Default : No

Forced : No

Text #6

ID : 12

Format : UTF-8

Codec ID : S_TEXT/UTF8

Codec ID/Info : UTF-8 Plain Text

Duration : 2 h 55 min

Bit rate : 50 b/s

Count of elements : 1681

Stream size : 64.7 KiB (0%)

Language : German

Default : No

Forced : No

Text #7

ID : 13

Format : UTF-8

Codec ID : S_TEXT/UTF8

Codec ID/Info : UTF-8 Plain Text

Duration : 2 h 49 min

Bit rate : 54 b/s

Count of elements : 1558

Stream size : 67.5 KiB (0%)

Language : English

Default : No

Forced : No

Text #8

ID : 14

Format : UTF-8

Codec ID : S_TEXT/UTF8

Codec ID/Info : UTF-8 Plain Text

Duration : 2 h 46 min

Bit rate : 51 b/s

Count of elements : 1569

Stream size : 63.3 KiB (0%)

Default : No

Forced : No

Text #9

ID : 15

Format : UTF-8

Codec ID : S_TEXT/UTF8

Codec ID/Info : UTF-8 Plain Text

Duration : 1 h 26 min

Bit rate : 58 b/s

Count of elements : 882

Stream size : 37.1 KiB (0%)

Default : No

Forced : No

Text #10

ID : 16

Format : UTF-8

Codec ID : S_TEXT/UTF8

Codec ID/Info : UTF-8 Plain Text

Duration : 2 h 55 min

Bit rate : 53 b/s

Count of elements : 1552

Stream size : 68.3 KiB (0%)

Default : No

Forced : No

Text #11

ID : 17

Format : UTF-8

Codec ID : S_TEXT/UTF8

Codec ID/Info : UTF-8 Plain Text

Duration : 2 h 53 min

Bit rate : 46 b/s

Count of elements : 1477

Stream size : 59.0 KiB (0%)

Language : German

Default : No

Forced : No

Text #12

ID : 18

Format : UTF-8

Codec ID : S_TEXT/UTF8

Codec ID/Info : UTF-8 Plain Text

Duration : 2 h 46 min

Bit rate : 57 b/s

Count of elements : 1598

Stream size : 70.4 KiB (0%)

Default : No

Forced : No

Text #13

ID : 19

Format : UTF-8

Codec ID : S_TEXT/UTF8

Codec ID/Info : UTF-8 Plain Text

Duration : 2 h 47 min

Bit rate : 50 b/s

Count of elements : 1599

Stream size : 62.0 KiB (0%)

Default : No

Forced : No

Text #14

ID : 20

Format : UTF-8

Codec ID : S_TEXT/UTF8

Codec ID/Info : UTF-8 Plain Text

Duration : 1 h 38 min

Bit rate : 55 b/s

Count of elements : 974

Stream size : 39.5 KiB (0%)

Language : English

Default : No

Forced : No

Text #15

ID : 21

Format : UTF-8

Codec ID : S_TEXT/UTF8

Codec ID/Info : UTF-8 Plain Text

Duration : 2 h 46 min

Bit rate : 93 b/s

Count of elements : 1554

Stream size : 114 KiB (0%)

Default : No

Forced : No

Text #16

ID : 22

Format : UTF-8

Codec ID : S_TEXT/UTF8

Codec ID/Info : UTF-8 Plain Text

Duration : 2 h 37 min

Bit rate : 53 b/s

Count of elements : 1557

Stream size : 62.0 KiB (0%)

Default : No

Forced : No

Text #17

ID : 23

Format : UTF-8

Codec ID : S_TEXT/UTF8

Codec ID/Info : UTF-8 Plain Text

Duration : 2 h 48 min

Bit rate : 52 b/s

Count of elements : 1621

Stream size : 64.9 KiB (0%)

Default : No

Forced : No

Text #18

ID : 24

Format : UTF-8

Codec ID : S_TEXT/UTF8

Codec ID/Info : UTF-8 Plain Text

Duration : 2 h 53 min

Bit rate : 86 b/s

Count of elements : 1534

Stream size : 109 KiB (0%)

Default : No

Forced : No

Text #19

ID : 25

Format : UTF-8

Codec ID : S_TEXT/UTF8

Codec ID/Info : UTF-8 Plain Text

Duration : 2 h 37 min

Bit rate : 33 b/s

Count of elements : 1020

Stream size : 39.2 KiB (0%)

Default : No

Forced : No

Text #20

ID : 26

Format : UTF-8

Codec ID : S_TEXT/UTF8

Codec ID/Info : UTF-8 Plain Text

Duration : 2 h 55 min

Bit rate : 43 b/s

Count of elements : 1333

Stream size : 56.0 KiB (0%)

Default : No

Forced : No

Text #21

ID : 27

Format : UTF-8

Codec ID : S_TEXT/UTF8

Codec ID/Info : UTF-8 Plain Text

Duration : 1 h 23 min

Bit rate : 52 b/s

Count of elements : 840

Stream size : 31.8 KiB (0%)

Language : French

Default : No

Forced : No

Menu

00:00:00.000 : :Chapter 1

00:04:37.027 : :Chapter 2

00:08:50.864 : :Chapter 3

00:13:20.091 : :Chapter 4

00:17:23.584 : :Chapter 5

00:21:48.182 : :Chapter 6

00:24:42.815 : :Chapter 7

00:29:19.466 : :Chapter 8

00:34:16.012 : :Chapter 9

00:38:16.586 : :Chapter 10

00:41:34.158 : :Chapter 11

00:43:39.408 : :Chapter 12

00:46:56.188 : :Chapter 13

00:53:30.249 : :Chapter 14

00:57:43.377 : :Chapter 15

00:59:50.087 : :Chapter 16

01:03:51.411 : :Chapter 17

01:07:18.243 : :Chapter 18

01:12:20.878 : :Chapter 19

01:16:06.562 : :Chapter 20

01:21:37.768 : :Chapter 21

01:25:04.766 : :Chapter 22

01:27:40.046 : :Chapter 23

01:33:28.937 : :Chapter 24

01:40:51.712 : :Chapter 25

01:44:25.926 : :Chapter 26

01:44:50.242 : :Chapter 27

01:46:25.629 : :Chapter 28

01:50:49.977 : :Chapter 29

01:57:52.232 : :Chapter 30

02:01:11.556 : :Chapter 31

02:06:46.349 : :Chapter 32

02:09:58.541 : :Chapter 33

02:14:17.466 : :Chapter 34

02:17:10.472 : :Chapter 35

02:21:12.464 : :Chapter 36

02:23:32.312 : :Chapter 37

02:28:37.075 : :Chapter 38

02:30:45.703 : :Chapter 39

02:33:29.033 : :Chapter 40

02:38:27.748 : :Chapter 41

02:43:33.595 : :Chapter 42

02:47:18.362 : :Chapter 43

02:50:45.068 : :Chapter 44

02:54:57.862 : :Chapter 45

Grand Prix (1966) – BluRay MuDownload Torrent Magnet

#Grand #Prix #BluRay