Goodfellas (1990) 1080p 25th Full Torrent Magnet Download

Download Torrent Goodfellas (1990) 1080p 25th Movie Full in HD Result. Movie Goodfellas (1990) 1080p 25th Torrent Download full. Movie Goodfellas (1990) 1080p 25th torrent Magnet Download Full. Goodfellas (1990) 1080p 25th Full Movie Torrent Download And Magnet Download For your PC And Mobiles. Latest Movie Goodfellas (1990) 1080p 25th Download Link In Bottom.

Torrent And Magnet Links Below

Quality Rip from the 25th Anniversary Edition Remaster BluRay. Very clean and detailed. Grain is left for the OG Vintage Vibe.

Plays Plug And Play from console, USB, PC and phone. No blocky artifacts and no stuttering. Enjoy.

x265/HEVC 10bit 1080p

Apple AAC – English 5.1 (original)

Subtitles – English Full, English SDH, Russian Full Bluray

Chapters – included

Code:

Format : Matroska

Format version : Version 4

File size : 12.7 GiB

Duration : 2 h 25 min

Overall bit rate : 12.5 Mb/s

Movie name : Goodfellas

Encoded date : UTC 2020-10-06 14:23:16

Writing application : mkvmerge v51.0.0 (‘I Wish’) 64-bit

Writing library : libebml v1.4.0 + libmatroska v1.6.2

Cover : Yes

Attachments : cover

Video

ID : 1

Format : HEVC

Format/Info : High Efficiency Video Coding

Format profile : Main [email protected]@Main

Codec ID : V_MPEGH/ISO/HEVC

Duration : 2 h 25 min

Bit rate : 11.9 Mb/s

Width : 1 920 pixels

Height : 1 080 pixels

Display aspect ratio : 16:9

Frame rate mode : Constant

Frame rate : 23.976 (24000/1001) FPS

Color space : YUV

Chroma subsampling : 4:2:0

Bit depth : 10 bits

Bits/(Pixel*Frame) : 0.239

Stream size : 12.1 GiB (95%)

Writing library : x265 3.4+6-g73f96ff39:[Windows][GCC 11.0.0][64 bit] 10bit

Encoding settings : cpuid=1111039 / frame-threads=4 / numa-pools=16 / wpp / no-pmode / no-pme / no-psnr / no-ssim / log-level=2 / input-csp=1 / input-res=1920×1080 / interlace=0 / total-frames=209088 / level-idc=0 / high-tier=1 / uhd-bd=0 / ref=4 / no-allow-non-conformance / no-repeat-headers / annexb / no-aud / no-hrd / info / hash=0 / no-temporal-layers / open-gop / min-keyint=23 / keyint=250 / gop-lookahead=0 / bframes=8 / b-adapt=2 / b-pyramid / bframe-bias=0 / rc-lookahead=40 / lookahead-slices=4 / scenecut=40 / hist-scenecut=0 / radl=0 / no-splice / no-intra-refresh / ctu=64 / min-cu-size=8 / rect / no-amp / max-tu-size=32 / tu-inter-depth=1 / tu-intra-depth=1 / limit-tu=0 / rdoq-level=2 / dynamic-rd=0.00 / no-ssim-rd / signhide / no-tskip / nr-intra=0 / nr-inter=0 / no-constrained-intra / strong-intra-smoothing / max-merge=3 / limit-refs=3 / limit-modes / me=3 / subme=4 / merange=57 / temporal-mvp / no-frame-dup / no-hme / weightp / no-weightb / no-analyze-src-pics / deblock=-1:-1 / no-sao / no-sao-non-deblock / rd=4 / selective-sao=0 / no-early-skip / rskip / no-fast-intra / no-tskip-fast / no-cu-lossless / no-b-intra / no-splitrd-skip / rdpenalty=0 / psy-rd=2.00 / psy-rdoq=1.00 / no-rd-refine / no-lossless / cbqpoffs=0 / crqpoffs=0 / rc=crf / crf=20.0 / qcomp=0.60 / qpstep=4 / stats-write=0 / stats-read=0 / ipratio=1.40 / pbratio=1.30 / aq-mode=3 / aq-strength=1.00 / cutree / zone-count=0 / no-strict-cbr / qg-size=32 / no-rc-grain / qpmax=69 / qpmin=0 / no-const-vbv / sar=0 / overscan=0 / videoformat=5 / range=0 / colorprim=2 / transfer=2 / colormatrix=2 / chromaloc=0 / display-window=0 / cll=0,0 / min-luma=0 / max-luma=1023 / log2-max-poc-lsb=8 / vui-timing-info / vui-hrd-info / slices=1 / no-opt-qp-pps / no-opt-ref-list-length-pps / no-multi-pass-opt-rps / scenecut-bias=0.05 / hist-threshold=0.01 / no-opt-cu-delta-qp / no-aq-motion / no-hdr10 / no-hdr10-opt / no-dhdr10-opt / no-idr-recovery-sei / analysis-reuse-level=0 / analysis-save-reuse-level=0 / analysis-load-reuse-level=0 / scale-factor=0 / refine-intra=0 / refine-inter=0 / refine-mv=1 / refine-ctu-distortion=0 / no-limit-sao / ctu-info=0 / no-lowpass-dct / refine-analysis-type=0 / copy-pic=1 / max-ausize-factor=1.0 / no-dynamic-refine / no-single-sei / no-hevc-aq / no-svt / no-field / qp-adaptation-range=1.00 / no-scenecut-aware-qpconformance-window-offsets / right=0 / bottom=0 / decoder-max-rate=0

Default : Yes

Forced : No

Audio

ID : 2

Format : AAC LC

Format/Info : Advanced Audio Codec Low Complexity

Codec ID : A_AAC-2

Duration : 2 h 25 min

Bit rate : 576 kb/s

Channel(s) : 6 channels

Channel layout : C L R Ls Rs LFE

Sampling rate : 48.0 kHz

Frame rate : 46.875 FPS (1024 SPF)

Compression mode : Lossy

Stream size : 591 MiB (5%)

Title : Original

Language : English

Default : Yes

Forced : No

Text

ID : 3

Format : PGS

Muxing mode : zlib

Codec ID : S_HDMV/PGS

Codec ID/Info : Picture based subtitle format used on BDs/HD-DVDs

Duration : 2 h 24 min

Bit rate : 47.3 kb/s

Count of elements : 4388

Stream size : 48.8 MiB (0%)

Title : English Sub PGS

Language : English

Default : No

Forced : No

Menu

00:00:00.000 : en:Prologue and Credits

00:02:42.913 : en:The Cab Stand

00:05:49.432 : en:No More Letters

00:07:36.539 : en:Paulie’s Business

00:09:08.465 : en:Like a Gangster

00:10:48.731 : en:Jimmy the Gent

00:13:28.558 : en:Henry’s First Pinch

00:15:01.818 : en:The Idlewild Connection

00:16:38.581 : en:Cast of Characters

00:19:43.099 : en:Funny Guy

00:23:46.342 : en:The Bamboo Lounge

00:28:39.635 : en:First Date, First Fight

00:31:32.641 : en:The Copacabana

00:34:36.157 : en:Airport Heist

00:35:43.391 : en:Animal Attraction

00:37:21.156 : en:Morrie and Bruce…

00:41:27.568 : en:The Wedding

00:44:26.414 : en:The Wives

00:48:56.016 : en:Togetherness

00:52:04.371 : en:Billy Bats

00:57:07.341 : en:Mrs. DeVito’s House

01:01:10.250 : en:Friday’s

01:03:46.239 : en:Digging Expedition

01:06:23.229 : en:Janice

01:07:43.476 : en:Spider

01:12:32.265 : en:At Gunpoint

01:15:43.289 : en:Trip to Tampa

01:18:39.298 : en:Trip to Jail

01:20:02.715 : en:Life in Stir

01:23:05.397 : en:On Our Own

01:25:37.716 : en:Homecoming; Paulie’s

01:28:14.372 : en:New Business, New Home

01:30:29.841 : en:The Lufthansa Heist

01:33:20.845 : en:Payoffs

01:37:52.450 : en:Covering Stacks’ Tracks

01:40:01.746 : en:Tommy’s Good Fortune

01:42:51.415 : en:Morrie’s Bad Fortune

01:46:34.138 : en:Bodies All Over

01:49:14.298 : en:The Day Tommie is Made

01:53:21.545 : en:Sunday, May 11th 1980

02:03:56.179 : en:Aftermath: The Bad Time

02:07:18.714 : en:Henry and Paulie

02:09:29.679 : en:Karen and Jimmy

02:12:00.830 : en:Smiling Murderers

02:15:02.011 : en:Leaving the Life

02:18:47.402 : en:A Schnook; Coda

02:20:32.841 : en:End Credits

Goodfellas (1990) 1080p 25th Download Torrent Magnet

#Goodfellas #1080p #25th