Gone.in.60.Seconds.2000.BRRip Full Torrent Magnet Download

Download Torrent Gone.in.60.Seconds.2000.BRRip Movie Full in HD Result. Movie Gone.in.60.Seconds.2000.BRRip Torrent Download full. Movie Gone.in.60.Seconds.2000.BRRip torrent Magnet Download Full. Gone.in.60.Seconds.2000.BRRip Full Movie Torrent Download And Magnet Download For your PC And Mobiles. Latest Movie Gone.in.60.Seconds.2000.BRRip Download Link In Bottom.

Torrent And Magnet Links Below

Gone.in.60.Seconds.2000.BRRip.XviD.B4ND1T69

Director: Dominic Sena

Writers: H.B. Halicki, Scott Rosenberg (screenplay)

Stars: Nicolas Cage, Angelina Jolie, Giovanni Ribisi

Plot/Story:

A retired master car thief must come back to the industry and steal fifty cars with his crew in one night to save his brother’s life.

General

Complete name : Gone.in.60.Seconds.2000.BRRip.XviD.B4ND1T69.avi

Format : AVI

Format/Info : Audio Video Interleave

File size : 1.43 GiB

Duration : 1 h 57 min

Overall bit rate : 1 741 kb/s

Subtitles : Yes…Included(HI)

Video

ID : 0

Format : MPEG-4 Visual

Format profile : Advanced [email protected]
Format settings, BVOP : 2

Format settings, QPel : No

Format settings, GMC : No warppoints

Format settings, Matrix : Default (H.263)

Codec ID : XVID

Codec ID/Hint : XviD

Duration : 1 h 57 min

Bit rate : 1 600 kb/s

Width : 1 920 pixels

Height : 816 pixels

Display aspect ratio : 2.35:1

Frame rate : 23.976 (24000/1001) FPS

Color space : YUV

Chroma subsampling : 4:2:0

Bit depth : 8 bits

Scan type : Progressive

Compression mode : Lossy

Bits/(Pixel*Frame) : 0.043

Stream size : 1.32 GiB (92%)

Writing library : XviD 64

Audio

ID : 1

Format : MPEG Audio

Format version : Version 1

Format profile : Layer 3

Codec ID : 55

Codec ID/Hint : MP3

Duration : 1 h 57 min

Bit rate mode : Constant

Bit rate : 128 kb/s

Channel(s) : 2 channels

Sampling rate : 48.0 kHz

Compression mode : Lossy

Stream size : 108 MiB (7%)

Alignment : Aligned on interleaves

Interleave, duration : 24 ms (0.58 video frame)

Screenshots:









Please Seed For As Long As Possible

Or At Least 1:1 Ratio…Thanks

Enjoy Peeps

Gone.in.60.Seconds.2000.BRRipDownload Torrent Magnet

#Gonein60Seconds2000BRRip