Golden Cush 2020 Marathi 1080 Full Torrent Magnet Download

Download Torrent Golden Cush 2020 Marathi 1080 Movie Full in HD Result. Movie Golden Cush 2020 Marathi 1080 Torrent Download full. Movie Golden Cush 2020 Marathi 1080 torrent Magnet Download Full. Golden Cush 2020 Marathi 1080 Full Movie Torrent Download And Magnet Download For your PC And Mobiles. Latest Movie Golden Cush 2020 Marathi 1080 Download Link In Bottom.

Torrent And Magnet Links Below





General

Complete name : Golden Cush 2020 Marathi 1080p Web-DL x264 AAC [TMB] Short Film.mkv

Format : Matroska

Format version : Version 4

File size : 302 MiB

Duration : 9 min 31 s

Overall bit rate : 4 426 kb/s

Video

Format : AVC

Format/Info : Advanced Video Codec

Format profile : [email protected]
Format settings : CABAC / 4 Ref Frames

Format settings, CABAC : Yes

Format settings, Reference : 4 frames

Codec ID : V_MPEG4/ISO/AVC

Duration : 9 min 31 s

Bit rate : 4 364 kb/s

Width : 2 542 pixels

Height : 1 080 pixels

Display aspect ratio : 2.35:1

Original display aspect rat : 2.35:1

Frame rate mode : Constant

Frame rate : 25.000 FPS

Color space : YUV

Chroma subsampling : 4:2:0

Bit depth : 8 bits

Scan type : Progressive

Bits/(Pixel*Frame) : 0.064

Stream size : 297 MiB (98%)

Audio

Format : AAC LC

Format/Info : Advanced Audio Codec Low Complexity

Codec ID : A_AAC-2

Duration : 9 min 31 s

Bit rate : 64.3 kb/s

Channel(s) : 2 channels

Channel layout : L R

Sampling rate : 48.0 kHz

Frame rate : 46.875 FPS (1024 SPF)

Compression mode : Lossy

Stream size : 4.38 MiB (1%)

Uploaded & Shared by TMB

Seeding 24×7… Extreme Seeding…

Enjoy!

Golden Cush 2020 Marathi 1080Download Torrent Magnet

#Golden #Cush #Marathi