Godfather.Of.Harlem.S01E10.WE Full Torrent Magnet Download

Download Torrent Godfather.Of.Harlem.S01E10.WE Movie Full in HD Result. Movie Godfather.Of.Harlem.S01E10.WE Torrent Download full. Movie Godfather.Of.Harlem.S01E10.WE torrent Magnet Download Full. Godfather.Of.Harlem.S01E10.WE Full Movie Torrent Download And Magnet Download For your PC And Mobiles. Latest Movie Godfather.Of.Harlem.S01E10.WE Download Link In Bottom.

Torrent And Magnet Links Below

DATI – TRAMA

Titolo originale Godfather of Harlem

Paese Stati Uniti

Anno 2019 – in produzione

Formato serie TV

Genere thriller, drammatico

Stagioni 1

Episodi 10

Durata 55 minuti

Lingua originale inglese

Il Padrino di Harlem racconta la “vera storia” del famigerato boss del crimine Bumpy Johnson, che all’inizio degli anni ’60 tornò da dieci anni di prigione per trovare il quartiere che un tempo governava in rovina. Con le strade controllate dalla mafia italiana, Bumpy deve affrontare la criminosa famiglia Genovese per riprendere il controllo. Durante la brutale battaglia, stringe un’alleanza con il predicatore Malcolm X – cogliendo l’ascesa politica di Malcolm nel mirino di sconvolgimenti sociali e di una guerra di mafia che minaccia di fare a pezzi la città.

IMMAGINI



REPORT

General

Unique ID : 225938940388044805872565261682150910903 (0xA9FA41D0A084E828AF4B86A6CF7EABB7)

Complete name : C:UsersAdministratorVideosGodfather Of Harlem S01Godfather.Of.Harlem.S01E01.REPACK.WEBMux.ITA.ENG.DD5.1.x264-BlackBit.mkv

Format : Matroska

Format version : Version 4

File size : 681 MiB

Duration : 59 min 32 s

Overall bit rate : 1 599 kb/s

Encoded date : UTC 2021-02-23 12:26:13

Writing application : mkvmerge v52.0.0 (‘Secret For The Mad’) 64-bit

Writing library : libebml v1.4.1 + libmatroska v1.6.2

Video

ID : 1

Format : AVC

Format/Info : Advanced Video Codec

Format profile : [email protected]
Format settings : CABAC / 5 Ref Frames

Format settings, CABAC : Yes

Format settings, Reference : 5 frames

Codec ID : V_MPEG4/ISO/AVC

Duration : 59 min 31 s

Bit rate : 1 100 kb/s

Width : 720 pixels

Height : 400 pixels

Display aspect ratio : 16:9

Frame rate mode : Constant

Frame rate : 23.976 (24000/1001) FPS

Color space : YUV

Chroma subsampling : 4:2:0

Bit depth : 8 bits

Scan type : Progressive

Bits/(Pixel*Frame) : 0.159

Stream size : 462 MiB (68%)

Writing library : x264 core 152 r2851M ba24899

Encoding settings : cabac=1 / ref=5 / deblock=1:-1:-1 / analyse=0x3:0x113 / me=umh / subme=9 / psy=1 / psy_rd=1.00:0.15 / mixed_ref=1 / me_range=16 / chroma_me=1 / trellis=2 / 8x8dct=1 / cqm=0 / deadzone=21,11 / fast_pskip=1 / chroma_qp_offset=-3 / threads=12 / lookahead_threads=1 / sliced_threads=0 / nr=0 / decimate=1 / interlaced=0 / bluray_compat=0 / constrained_intra=0 / bframes=3 / b_pyramid=2 / b_adapt=2 / b_bias=0 / direct=3 / weightb=1 / open_gop=0 / weightp=2 / keyint=250 / keyint_min=23 / scenecut=40 / intra_refresh=0 / rc_lookahead=50 / rc=abr / mbtree=1 / bitrate=1100 / ratetol=1.0 / qcomp=0.60 / qpmin=0 / qpmax=69 / qpstep=4 / ip_ratio=1.40 / aq=1:1.00

Default : Yes

Forced : Yes

Audio #1

ID : 2

Format : AC-3

Format/Info : Audio Coding 3

Commercial name : Dolby Digital

Codec ID : A_AC3

Duration : 59 min 32 s

Bit rate mode : Constant

Bit rate : 256 kb/s

Channel(s) : 6 channels

Channel layout : L R C LFE Ls Rs

Sampling rate : 48.0 kHz

Frame rate : 31.250 FPS (1536 SPF)

Compression mode : Lossy

Delay relative to video : -43 ms

Stream size : 109 MiB (16%)

Language : Italian

Service kind : Complete Main

Default : Yes

Forced : Yes

Audio #2

ID : 3

Format : AAC LC

Format/Info : Advanced Audio Codec Low Complexity

Codec ID : A_AAC-2

Duration : 59 min 32 s

Bit rate : 256 kb/s

Channel(s) : 2 channels

Channel layout : L R

Sampling rate : 48.0 kHz

Frame rate : 46.875 FPS (1024 SPF)

Compression mode : Lossy

Delay relative to video : -43 ms

Stream size : 109 MiB (16%)

Language : English

Default : No

Forced : No

Text #1

ID : 4

Format : UTF-8

Codec ID : S_TEXT/UTF8

Codec ID/Info : UTF-8 Plain Text

Duration : 59 min 8 s

Bit rate : 49 b/s

Count of elements : 711

Stream size : 21.6 KiB (0%)

Language : Italian

Default : No

Forced : No

Text #2

ID : 5

Format : UTF-8

Codec ID : S_TEXT/UTF8

Codec ID/Info : UTF-8 Plain Text

Duration : 59 min 14 s

Bit rate : 75 b/s

Count of elements : 1187

Stream size : 32.7 KiB (0%)

Title : SDH

Language : English

Default : No

Forced : No

GOOD DOWNLOAD

Godfather.Of.Harlem.S01E10.WEDownload Torrent Magnet

#GodfatherOfHarlemS01E10WE