Ghost.Rider.2007.EXTENDED.CUT Full Torrent Magnet Download

Download Torrent Ghost.Rider.2007.EXTENDED.CUT Movie Full in HD Result. Movie Ghost.Rider.2007.EXTENDED.CUT Torrent Download full. Movie Ghost.Rider.2007.EXTENDED.CUT torrent Magnet Download Full. Ghost.Rider.2007.EXTENDED.CUT Full Movie Torrent Download And Magnet Download For your PC And Mobiles. Latest Movie Ghost.Rider.2007.EXTENDED.CUT Download Link In Bottom.

Torrent And Magnet Links Below

Ghost.Rider.2007.EXTENDED.CUT.BRRip.XviD.B4ND1T69

Director: Mark Steven Johnson

Writers: Mark Steven Johnson (screenplay), Mark Steven Johnson (screen story)

Stars: Nicolas Cage, Eva Mendes, Sam Elliott

Plot/Story:

When motorcycle rider Johnny Blaze sells his soul to the Devil to save his father’s life, he is transformed into the Ghost Rider, the Devil’s own bounty hunter, and is sent to hunt down sinners.

General

Complete name : Ghost.Rider.2007.EXTENDED.CUT.BRRip.XviD.B4ND1T69.avi

Format : AVI

Format/Info : Audio Video Interleave

File size : 1.38 GiB

Duration : 2 h 3 min

Overall bit rate : 1 598 kb/s

Subtitles : Yes…Included(HI)

Video

ID : 0

Format : MPEG-4 Visual

Format profile : Advanced [email protected]
Format settings, BVOP : 2

Format settings, QPel : No

Format settings, GMC : No warppoints

Format settings, Matrix : Default (H.263)

Codec ID : XVID

Codec ID/Hint : XviD

Duration : 2 h 3 min

Bit rate : 1 457 kb/s

Width : 720 pixels

Height : 304 pixels

Display aspect ratio : 2.35:1

Frame rate : 24.390 FPS

Color space : YUV

Chroma subsampling : 4:2:0

Bit depth : 8 bits

Scan type : Progressive

Compression mode : Lossy

Bits/(Pixel*Frame) : 0.273

Stream size : 1.26 GiB (91%)

Writing library : XviD 64

Audio

ID : 1

Format : MPEG Audio

Format version : Version 1

Format profile : Layer 3

Codec ID : 55

Codec ID/Hint : MP3

Duration : 2 h 3 min

Bit rate mode : Constant

Bit rate : 128 kb/s

Channel(s) : 2 channels

Sampling rate : 48.0 kHz

Compression mode : Lossy

Stream size : 113 MiB (8%)

Alignment : Aligned on interleaves

Interleave, duration : 24 ms (0.59 video frame)

Screenshots:









Please Seed For As Long As Possible

Or At Least 1:1 Ratio…Thanks

Enjoy Peeps

Ghost.Rider.2007.EXTENDED.CUTDownload Torrent Magnet

#GhostRider2007EXTENDEDCUT