Geostorm.2017.iTA.ENG.AC3.SUB Full Torrent Magnet Download

Download Torrent Geostorm.2017.iTA.ENG.AC3.SUB Movie Full in HD Result. Movie Geostorm.2017.iTA.ENG.AC3.SUB Torrent Download full. Movie Geostorm.2017.iTA.ENG.AC3.SUB torrent Magnet Download Full. Geostorm.2017.iTA.ENG.AC3.SUB Full Movie Torrent Download And Magnet Download For your PC And Mobiles. Latest Movie Geostorm.2017.iTA.ENG.AC3.SUB Download Link In Bottom.

Torrent And Magnet Links Below


Geostorm


Titolo originale: Geostorm

Data di uscita: 01 novembre 2017

Genere: Azione

Anno: 2017

Regia: Dean Devlin

Attori: Gerard Butler, Ed Harris, Andy Garcia, Katheryn Winnick, Jim Sturgess, Abbie Cornish, Robert Sheehan, Mare Winningham, Amr Waked, Drew Powell, Eugenio Derbez, Sterling Jerins

Paese: USA

Durata: 109 min

Distribuzione: Warner Bros.

Sceneggiatura: Kieran Mulroney, Michele Mulroney

Fotografia: Roberto Schaefer

Montaggio: Ron Rosen

Produzione: Electric Entertainment, Skydance Productions, Warner Bros.


Geostorm è un film del 2017 diretto da Dean Devlin.

Nel 2019 il fragile sistema climatico che governa il pianeta Terra è controllato da un impianto satellitare globale, Dutch Boy, che ha permesso l’eliminazione di disastrose tempeste e della siccità nel mondo.

Jake Lawson (Gerard Butler), inizialmente responsabile del progetto, viene estromesso a causa della sua irriverenza al Senato e il fratello Max (Jim Sturgess) prende il suo posto.

Tre anni dopo, in Afghanistan si verifica un episodio climatico sconcertante. Lawson si mostra molto preoccupato e chiede al Presidente degli Stati Uniti di disporre una missione nello spazio per cercare l’eventuale avaria che sta compromettendo le capacità di Dutch Boy.

Il Presidente accetta di inviare Jake sulla stazione satellitare capitanata da Ute Fassbider (Alexandra Maria Lara), mentre ad Hong Kong si verifica un’altra catastrofe climatica.

Il rappresentante cinese Cheng Long (Daniel Wu) si mette in contatto con Max per comunicargli l’accaduto, sostenendo che si stia per verificare un geostorm. Per scongiurare la prospettiva apocalittica, Long raggiunge Max in America poiché ipotizza che qualcuno stia cercando di manomettere Dutch Boy senza destare sospetti.

Nel frattempo, Max informa Jake del complotto che sta cercando di smascherare con il collega cinese. I fratelli Lawson ingaggeranno una lotta contro il tempo per salvare il pianeta Terra e la popolazione mondiale…




General

Unique ID : 211475432708393213574036753247969999218 (0x9F18AFD4741D486487AE919DB7EFF972)

Complete name : Geostorm.2017.iTA.ENG.AC3.SUB.iTA.ENG.BluRay.1080p.x264.jeddak-MIRCrew.mkv

Format : Matroska

Format version : Version 2

File size : 2.49 GiB

Duration : 1 h 49 min

Overall bit rate : 3 264 kb/s

Movie name : Geostorm.2017.iTA.ENG.AC3.SUB.iTA.ENG.BluRay.1080p.x264.jeddak-MIRCrew

Encoded date : UTC 2021-04-07 19:44:35

Writing application : mkvmerge v5.6.0 (‘Kenya Kane’) built on May 27 2012 16:44:04

Writing library : libebml v1.2.3 + libmatroska v1.3.0 / Lavf58.29.100

Video

ID : 1

Format : AVC

Format/Info : Advanced Video Codec

Format profile : [email protected]
Format settings : CABAC / 4 Ref Frames

Format settings, CABAC : Yes

Format settings, Reference : 4 frames

Codec ID : V_MPEG4/ISO/AVC

Duration : 1 h 49 min

Bit rate : 2 400 kb/s

Width : 1 920 pixels

Height : 800 pixels

Display aspect ratio : 2.40:1

Frame rate mode : Constant

Frame rate : 23.976 (24000/1001) FPS

Color space : YUV

Chroma subsampling : 4:2:0

Bit depth : 8 bits

Scan type : Progressive

Bits/(Pixel*Frame) : 0.065

Stream size : 1.76 GiB (71%)

Title : …::: jeddak MIRCrew :::…

Writing library : x264 core 148

Encoding settings : cabac=1 / ref=3 / deblock=1:-1:-1 / analyse=0x3:0x113 / me=hex / subme=7 / psy=1 / psy_rd=1.00:0.15 / mixed_ref=1 / me_range=16 / chroma_me=1 / trellis=1 / 8x8dct=1 / cqm=0 / deadzone=21,11 / fast_pskip=1 / chroma_qp_offset=-3 / threads=6 / lookahead_threads=1 / sliced_threads=0 / nr=0 / decimate=1 / interlaced=0 / bluray_compat=0 / constrained_intra=0 / bframes=3 / b_pyramid=2 / b_adapt=1 / b_bias=0 / direct=1 / weightb=1 / open_gop=0 / weightp=2 / keyint=240 / keyint_min=24 / scenecut=40 / intra_refresh=0 / rc_lookahead=40 / rc=abr / mbtree=1 / bitrate=2400 / ratetol=1.0 / qcomp=0.60 / qpmin=0 / qpmax=69 / qpstep=4 / vbv_maxrate=62500 / vbv_bufsize=78125 / nal_hrd=none / filler=0 / ip_ratio=1.40 / aq=1:1.00

Default : Yes

Forced : No

Color range : Limited

Color primaries : BT.709

Transfer characteristics : BT.709

Matrix coefficients : BT.709

Audio #1

ID : 2

Format : AC-3

Format/Info : Audio Coding 3

Commercial name : Dolby Digital

Codec ID : A_AC3

Duration : 1 h 49 min

Bit rate mode : Constant

Bit rate : 448 kb/s

Channel(s) : 6 channels

Channel layout : L R C LFE Ls Rs

Sampling rate : 48.0 kHz

Frame rate : 31.250 FPS (1536 SPF)

Compression mode : Lossy

Delay relative to video : -5 ms

Stream size : 350 MiB (14%)

Title : iTA AC3 5.1

Language : Italian

Service kind : Complete Main

Default : Yes

Forced : No

Audio #2

ID : 3

Format : AC-3

Format/Info : Audio Coding 3

Commercial name : Dolby Digital

Codec ID : A_AC3

Duration : 1 h 49 min

Bit rate mode : Constant

Bit rate : 448 kb/s

Channel(s) : 6 channels

Channel layout : L R C LFE Ls Rs

Sampling rate : 48.0 kHz

Frame rate : 31.250 FPS (1536 SPF)

Compression mode : Lossy

Delay relative to video : -5 ms

Stream size : 350 MiB (14%)

Title : ENG AC3 5.1

Language : English

Service kind : Complete Main

Default : No

Forced : No

Text #1

ID : 4

Format : ASS

Codec ID : S_TEXT/ASS

Codec ID/Info : Advanced Sub Station Alpha

Compression mode : Lossless

Title : iTA FORCED

Language : Italian

Default : Yes

Forced : Yes

Text #2

ID : 5

Format : ASS

Codec ID : S_TEXT/ASS

Codec ID/Info : Advanced Sub Station Alpha

Duration : 1 h 41 min

Compression mode : Lossless

Title : iTA NON UDENTI

Language : Italian

Default : No

Forced : No

Text #3

ID : 6

Format : ASS

Codec ID : S_TEXT/ASS

Codec ID/Info : Advanced Sub Station Alpha

Duration : 1 h 41 min

Compression mode : Lossless

Title : ENG NON UDENTI

Language : English

Default : No

Forced : No

Menu

00:00:00.000 : :Capitolo 01

00:08:33.972 : :Capitolo 02

00:16:52.053 : :Capitolo 03

00:27:20.556 : :Capitolo 04

00:39:13.184 : :Capitolo 05

00:48:47.925 : :Capitolo 06

01:00:24.746 : :Capitolo 07

01:11:01.090 : :Capitolo 08

01:19:14.959 : :Capitolo 09

01:30:08.570 : :Capitolo 10

01:40:25.728 : :Capitolo 11

Geostorm.2017.iTA.ENG.AC3.SUBDownload Torrent Magnet

#Geostorm2017iTAENGAC3SUB