Garv – Pride and Honour 2004 Full Torrent Magnet Download

Download Torrent Garv – Pride and Honour 2004 Movie Full in HD Result. Movie Garv – Pride and Honour 2004 Torrent Download full. Movie Garv – Pride and Honour 2004 torrent Magnet Download Full. Garv – Pride and Honour 2004 Full Movie Torrent Download And Magnet Download For your PC And Mobiles. Latest Movie Garv – Pride and Honour 2004 Download Link In Bottom.

Torrent And Magnet Links Below

Garv – Pride and Honour 2004 AMZN WEB-DL 1080p Hindi AAC2.0 x264 ESub – SunGeorge

Quote:

Garv – Pride and Honour 2004 AMZN WEB-DL 1080p Hindi AAC2.0 x264 ESub – SunGeorge



Code:

General

Complete name : Garv – Pride and Honour 2004 AMZN WEB-DL 1080p Hindi AAC2.0 x264 ESub.mkv

Format : Matroska

Format version : Version 4

File size : 6.82 GiB

Duration : 2 h 55 min

Overall bit rate : 5 563 kb/s

Movie name : MovieAIO.us

Encoded date : UTC 2021-05-25 09:35:04

Writing application : mkvmerge v56.1.0 (‘My Friend’) 64-bit

Writing library : libebml v1.4.2 + libmatroska v1.6.4

Video

ID : 1

Format : AVC

Format/Info : Advanced Video Codec

Format profile : [email protected]
Format settings : CABAC / 4 Ref Frames

Format settings, CABAC : Yes

Format settings, Reference frames : 4 frames

Codec ID : V_MPEG4/ISO/AVC

Duration : 2 h 55 min

Bit rate : 5 433 kb/s

Width : 1 920 pixels

Height : 1 080 pixels

Display aspect ratio : 16:9

Frame rate mode : Constant

Frame rate : 25.000 FPS

Color space : YUV

Chroma subsampling : 4:2:0

Bit depth : 8 bits

Scan type : Progressive

Bits/(Pixel*Frame) : 0.105

Stream size : 6.66 GiB (98%)

Title : MovieAIO.us

Default : Yes

Forced : No

Audio

ID : 2

Format : AAC LC

Format/Info : Advanced Audio Codec Low Complexity

Codec ID : A_AAC-2

Duration : 2 h 55 min

Bit rate : 128 kb/s

Channel(s) : 2 channels

Channel layout : L R

Sampling rate : 48.0 kHz

Frame rate : 46.875 FPS (1024 SPF)

Compression mode : Lossy

Stream size : 161 MiB (2%)

Title : Hindi

Language : Hindi

Default : Yes

Forced : No

Text

ID : 3

Format : UTF-8

Codec ID : S_TEXT/UTF8

Codec ID/Info : UTF-8 Plain Text

Duration : 2 h 52 min

Bit rate : 53 b/s

Count of elements : 2017

Stream size : 68.4 KiB (0%)

Title : English

Default : Yes

Forced : No

Garv – Pride and Honour 2004 Download Torrent Magnet

#Garv #Pride #Honour