Garde à vue (1981) BluRay 108 Full Torrent Magnet Download

Download Torrent Garde à vue (1981) BluRay 108 Movie Full in HD Result. Movie Garde à vue (1981) BluRay 108 Torrent Download full. Movie Garde à vue (1981) BluRay 108 torrent Magnet Download Full. Garde à vue (1981) BluRay 108 Full Movie Torrent Download And Magnet Download For your PC And Mobiles. Latest Movie Garde à vue (1981) BluRay 108 Download Link In Bottom.

Torrent And Magnet Links Below

IMDB

Code:


General

Complete name : Garde.à.vue.(1981).BluRay.1080p.DTS.[Borsalino].DE.srt

Format : SubRip

File size : 84.3 KiB

Text

Format : SubRip

Compression mode : Lossless

General

Complete name : Garde.à.vue.(1981).BluRay.1080p.DTS.[Borsalino].EL.srt

Format : SubRip

File size : 131 KiB

Text

Format : SubRip

Compression mode : Lossless

General

Complete name : Garde.à.vue.(1981).BluRay.1080p.DTS.[Borsalino].EN.srt

Format : SubRip

File size : 95.5 KiB

Text

Format : SubRip

Compression mode : Lossless

General

Complete name : Garde.à.vue.(1981).BluRay.1080p.DTS.[Borsalino].ES.srt

Format : SubRip

File size : 90.8 KiB

Text

Format : SubRip

Compression mode : Lossless

General

Complete name : Garde.à.vue.(1981).BluRay.1080p.DTS.[Borsalino].FR.srt

Format : SubRip

File size : 93.4 KiB

Text

Format : SubRip

Compression mode : Lossless

General

Complete name : Garde.à.vue.(1981).BluRay.1080p.DTS.[Borsalino].IT.srt

Format : SubRip

File size : 99.7 KiB

Text

Format : SubRip

Compression mode : Lossless

General

Complete name : Garde.à.vue.(1981).BluRay.1080p.DTS.[Borsalino].NL.srt

Format : SubRip

File size : 69.0 KiB

Text

Format : SubRip

Compression mode : Lossless

General

Complete name : Garde.à.vue.(1981).BluRay.1080p.DTS.[Borsalino].mkv

Format : Matroska

Format version : Version 4

File size : 3.68 GiB

Duration : 1 h 24 min

Overall bit rate mode : Variable

Overall bit rate : 6 267 kb/s

Movie name : Garde.à.vue.(1981).BluRay.1080p.DTS.[Borsalino]
Writing application : mkvmerge v56.1.0 (‘My Friend’) 64-bit

Writing library : libebml v1.4.2 + libmatroska v1.6.4

Video

ID : 1

Format : AVC

Format/Info : Advanced Video Codec

Format profile : [email protected]
Format settings : CABAC / 3 Ref Frames

Format settings, CABAC : Yes

Format settings, Reference frames : 3 frames

Codec ID : V_MPEG4/ISO/AVC

Duration : 1 h 24 min

Bit rate mode : Variable

Bit rate : 5 500 kb/s

Maximum bit rate : 62.5 Mb/s

Width : 1 800 pixels

Height : 1 080 pixels

Display aspect ratio : 5:3

Frame rate mode : Constant

Frame rate : 25.000 FPS

Color space : YUV

Chroma subsampling : 4:2:0

Bit depth : 8 bits

Scan type : Progressive

Bits/(Pixel*Frame) : 0.113

Stream size : 3.23 GiB (88%)

Title : French

Writing library : x264 core 129 r2245 bc13772

Encoding settings : cabac=1 / ref=3 / deblock=1:0:0 / analyse=0x3:0x113 / me=hex / subme=7 / psy=1 / psy_rd=1.00:0.00 / mixed_ref=1 / me_range=16 / chroma_me=1 / trellis=1 / 8x8dct=1 / cqm=0 / deadzone=21,11 / fast_pskip=1 / chroma_qp_offset=-2 / threads=3 / lookahead_threads=1 / sliced_threads=0 / nr=0 / decimate=1 / interlaced=0 / bluray_compat=0 / constrained_intra=0 / bframes=3 / b_pyramid=0 / b_adapt=1 / b_bias=0 / direct=1 / weightb=1 / open_gop=0 / weightp=2 / keyint=250 / keyint_min=25 / scenecut=40 / intra_refresh=0 / rc_lookahead=40 / rc=2pass / mbtree=1 / bitrate=5500 / ratetol=1.0 / qcomp=0.60 / qpmin=0 / qpmax=69 / qpstep=4 / cplxblur=20.0 / qblur=0.5 / vbv_maxrate=62500 / vbv_bufsize=62500 / nal_hrd=vbr / ip_ratio=1.40 / aq=1:1.00

Language : French

Default : No

Forced : No

Audio

ID : 2

Format : DTS

Format/Info : Digital Theater Systems

Codec ID : A_DTS

Duration : 1 h 24 min

Bit rate mode : Constant

Bit rate : 768 kb/s

Channel(s) : 1 channel

Channel layout : C

Sampling rate : 48.0 kHz

Frame rate : 93.750 FPS (512 SPF)

Bit depth : 24 bits

Compression mode : Lossy

Delay relative to video : 11 ms

Stream size : 462 MiB (12%)

Title : French

Language : French

Default : No

Forced : No

Spoken language

Subtitles (srt files)
















Garde à vue (1981) BluRay 108Download Torrent Magnet

#Garde #vue #BluRay