Gangster.Squad.2013.BRRip.Xvi Full Torrent Magnet Download

Download Torrent Gangster.Squad.2013.BRRip.Xvi Movie Full in HD Result. Movie Gangster.Squad.2013.BRRip.Xvi Torrent Download full. Movie Gangster.Squad.2013.BRRip.Xvi torrent Magnet Download Full. Gangster.Squad.2013.BRRip.Xvi Full Movie Torrent Download And Magnet Download For your PC And Mobiles. Latest Movie Gangster.Squad.2013.BRRip.Xvi Download Link In Bottom.

Torrent And Magnet Links Below

Gangster.Squad.2013.BRRip.XviD.B4ND1T69

Director: Ruben Fleischer

Writers: Will Beall, Paul Lieberman (book)

Stars: Sean Penn, Ryan Gosling, Emma Stone

Plot/Story:

It’s 1949 Los Angeles, the city is run by gangsters and a malicious mobster, Mickey Cohen. Determined to end the corruption, John O’Mara assembles a team of cops, ready to take down the ruthless leader and restore peace to the city.

General

Complete name : Gangster.Squad.2013.BRRip.XviD.B4ND1T69.avi

Format : AVI

Format/Info : Audio Video Interleave

File size : 883 MiB

Duration : 1 h 52 min

Overall bit rate : 1 094 kb/s

Subtitles : Yes…Included(HI)

Video

ID : 0

Format : MPEG-4 Visual

Format profile : Advanced [email protected]
Format settings, BVOP : 2

Format settings, QPel : No

Format settings, GMC : No warppoints

Format settings, Matrix : Default (H.263)

Codec ID : XVID

Codec ID/Hint : XviD

Duration : 1 h 52 min

Bit rate : 953 kb/s

Width : 720 pixels

Height : 304 pixels

Display aspect ratio : 2.35:1

Frame rate : 23.976 (24000/1001) FPS

Color space : YUV

Chroma subsampling : 4:2:0

Bit depth : 8 bits

Scan type : Progressive

Compression mode : Lossy

Bits/(Pixel*Frame) : 0.182

Stream size : 770 MiB (87%)

Writing library : XviD 64

Audio

ID : 1

Format : MPEG Audio

Format version : Version 1

Format profile : Layer 3

Codec ID : 55

Codec ID/Hint : MP3

Duration : 1 h 52 min

Bit rate mode : Constant

Bit rate : 128 kb/s

Channel(s) : 2 channels

Sampling rate : 48.0 kHz

Compression mode : Lossy

Stream size : 103 MiB (12%)

Alignment : Aligned on interleaves

Interleave, duration : 24 ms (0.58 video frame)

Screenshots:









Please Seed For As Long As Possible

Or At Least 1:1 Ratio…Thanks

Enjoy Peeps

Gangster.Squad.2013.BRRip.XviDownload Torrent Magnet

#GangsterSquad2013BRRipXvi