Gangs.of.New.York.2002.REMAST Full Torrent Magnet Download

Download Torrent Gangs.of.New.York.2002.REMAST Movie Full in HD Result. Movie Gangs.of.New.York.2002.REMAST Torrent Download full. Movie Gangs.of.New.York.2002.REMAST torrent Magnet Download Full. Gangs.of.New.York.2002.REMAST Full Movie Torrent Download And Magnet Download For your PC And Mobiles. Latest Movie Gangs.of.New.York.2002.REMAST Download Link In Bottom.

Torrent And Magnet Links Below

Gangs.of.New.York.2002.REMASTERED.BRRip.XviD.B4ND1T69

Director: Martin Scorsese

Writers: Jay Cocks (story), Jay Cocks (screenplay)

Stars: Leonardo DiCaprio, Cameron Diaz, Daniel Day-Lewis

Plot/Story:

In 1862, Amsterdam Vallon returns to the Five Points area of New York City seeking revenge against Bill the Butcher, his father’s killer.

General

Complete name : Gangs.of.New.York.2002.REMASTERED.BRRip.XviD.B4ND1T69.avi

Format : AVI

Format/Info : Audio Video Interleave

File size : 1.82 GiB

Duration : 2 h 46 min

Overall bit rate : 1 567 kb/s

Subtitles : Yes…Included(HI)

Video

ID : 0

Format : MPEG-4 Visual

Format profile : Advanced [email protected]
Format settings, BVOP : 2

Format settings, QPel : No

Format settings, GMC : No warppoints

Format settings, Matrix : Default (H.263)

Codec ID : XVID

Codec ID/Hint : XviD

Duration : 2 h 46 min

Bit rate : 1 426 kb/s

Width : 688 pixels

Height : 288 pixels

Display aspect ratio : 2.40:1

Frame rate : 23.976 (24000/1001) FPS

Color space : YUV

Chroma subsampling : 4:2:0

Bit depth : 8 bits

Scan type : Progressive

Compression mode : Lossy

Bits/(Pixel*Frame) : 0.300

Stream size : 1.66 GiB (91%)

Writing library : XviD 64

Audio

ID : 1

Format : MPEG Audio

Format version : Version 1

Format profile : Layer 3

Codec ID : 55

Codec ID/Hint : MP3

Duration : 2 h 46 min

Bit rate mode : Constant

Bit rate : 128 kb/s

Channel(s) : 2 channels

Sampling rate : 48.0 kHz

Compression mode : Lossy

Stream size : 153 MiB (8%)

Alignment : Aligned on interleaves

Interleave, duration : 24 ms (0.58 video frame)

Screenshots:









Please Seed For As Long As Possible

Or At Least 1:1 Ratio…Thanks

Enjoy Peeps

Gangs.of.New.York.2002.REMASTDownload Torrent Magnet

#GangsofNewYork2002REMAST