Gamer (2009) 2160p HDR 5.1 x2 Full Torrent Magnet Download

Download Torrent Gamer (2009) 2160p HDR 5.1 x2 Movie Full in HD Result. Movie Gamer (2009) 2160p HDR 5.1 x2 Torrent Download full. Movie Gamer (2009) 2160p HDR 5.1 x2 torrent Magnet Download Full. Gamer (2009) 2160p HDR 5.1 x2 Full Movie Torrent Download And Magnet Download For your PC And Mobiles. Latest Movie Gamer (2009) 2160p HDR 5.1 x2 Download Link In Bottom.

Torrent And Magnet Links Below

www.imdb.com/title/tt9620292/

In a future mind-controlling game, death row convicts are forced to battle in a ‘Doom’-type environment. Convict Kable, controlled by Simon, a skilled teenage gamer, must survive thirty sessions in order to be set free.

Source: DDR (web)

Format                      : Matroska

Format version              : Version 4

File size                   : 2.47 GiB

Duration                    : 1 h 34 min

Overall bit rate            : 3 730 kb/s

Writing library             : libebml v1.4.0 + libmatroska v1.6.2 / Lavf58.29.100

Video

ID                          : 1

Format                      : HEVC

Format/Info                 : High Efficiency Video Coding

Format profile              : Main [email protected]@High

Codec ID                    : V_MPEGH/ISO/HEVC

Duration                    : 1 h 34 min

Bit rate                    : 3 411 kb/s

Width                       : 3 840 pixels

Height                      : 2 072 pixels

Display aspect ratio        : 1.85:1

Frame rate mode             : Constant

Frame rate                  : 23.976 (24000/1001) FPS

Color space                 : YUV

Chroma subsampling          : 4:2:0

Bit depth                   : 10 bits

Bits/(Pixel*Frame)          : 0.018

Stream size                 : 2.26 GiB (91%)

Writing library             : x265 3.2.1+1-b5c86a64bbbe:[Windows][GCC 9.2.0][64 bit] 10bit

Color range                 : Full

Color primaries             : BT.2020

Transfer characteristics    : PQ

Matrix coefficients         : BT.2020 non-constant

Audio

ID                          : 2

Format                      : AC-3

Format/Info                 : Audio Coding 3

Commercial name             : Dolby Digital

Codec ID                    : A_AC3

Duration                    : 1 h 34 min

Bit rate mode               : Constant

Bit rate                    : 320 kb/s

Channel(s)                  : 6 channels

Channel layout              : L R C LFE Ls Rs

Sampling rate               : 48.0 kHz

Frame rate                  : 31.250 FPS (1536 SPF)

Compression mode            : Lossy

Delay relative to video     : 345 ms

Stream size                 : 217 MiB (9%)

Title                       : Surround

Language                    : English

Text )

Language                    : English

Language                    : French

Language                    : French

Default                     : No

Forced                      : No

Gamer (2009) 2160p HDR 5.1 x2Download Torrent Magnet

#Gamer #2160p #HDR