Full.Moon.In.Paris.1984.1080p Full Torrent Magnet Download

Download Torrent Full.Moon.In.Paris.1984.1080p Movie Full in HD Result. Movie Full.Moon.In.Paris.1984.1080p Torrent Download full. Movie Full.Moon.In.Paris.1984.1080p torrent Magnet Download Full. Full.Moon.In.Paris.1984.1080p Full Movie Torrent Download And Magnet Download For your PC And Mobiles. Latest Movie Full.Moon.In.Paris.1984.1080p Download Link In Bottom.

Torrent And Magnet Links Below

Quote:

*****************************************************************

*******************SCREENSHOTS(Click to enlarge)*******************

*******************************MEDIAINFO****************************

18+.Full.Moon.In.Paris.1984.1080p.BluRay.x264.AAC.LLG.mp4

Format : MPEG-4

Format profile : Base Media

Codec ID : isom (isom/iso2/avc1/mp41)

File size : 1.17 GiB

Duration : 1 h 41 min

Overall bit rate mode : Variable

Overall bit rate : 1 649 kb/s

Writing application : Lavf57.83.100

Video

ID : 1

Format : AVC

Format/Info : Advanced Video Codec

Format profile : [email protected]
Format settings : CABAC / 1 Ref Frames

Format settings, CABAC : Yes

Format settings, Reference frames : 1 frame

Codec ID : avc1

Codec ID/Info : Advanced Video Coding

Duration : 1 h 41 min

Bit rate mode : Variable

Bit rate : 1 518 kb/s

Maximum bit rate : 4 500 kb/s

Width : 1 440 pixels

Height : 1 072 pixels

Display aspect ratio : 4:3

Frame rate mode : Constant

Frame rate : 23.976 (23976/1000) FPS

Color space : YUV

Chroma subsampling : 4:2:0

Bit depth : 8 bits

Scan type : Progressive

Bits/(Pixel*Frame) : 0.041

Stream size : 1.08 GiB (92%)

Codec configuration box : avcC

Audio

ID : 2

Format : AAC LC

Codec ID : mp4a-40-2

Duration : 1 h 41 min

Bit rate mode : Variable

Bit rate : 128 kb/s

Channel(s) : 2 channels

Channel layout : L R

Sampling rate : 48.0 kHz

Frame rate : 46.875 FPS (1024 SPF)

Compression mode : Lossy

Stream size : 92.6 MiB (8%)

Default : Yes

Alternate group : 1

********************************************************

Full.Moon.In.Paris.1984.1080pDownload Torrent Magnet

#FullMoonInParis19841080p