Friends.With.Benefits.2011.10 Full Torrent Magnet Download

Download Torrent Friends.With.Benefits.2011.10 Movie Full in HD Result. Movie Friends.With.Benefits.2011.10 Torrent Download full. Movie Friends.With.Benefits.2011.10 torrent Magnet Download Full. Friends.With.Benefits.2011.10 Full Movie Torrent Download And Magnet Download For your PC And Mobiles. Latest Movie Friends.With.Benefits.2011.10 Download Link In Bottom.

Torrent And Magnet Links Below

Quote:

*************************************************************

******************************Thumbnbil:*********************

******************************Screenshots:********************

screenshot 1

screenshot 2

screenshot 3

screenshot 4

screenshot 5

screenshot 6

screenshot 7

screenshot 8

screenshot 9

screenshot 0

******************************************************

18+.Friends.With.Benefits.2011.1080p.BluRay.x264.AC3.LLG.mp4

Format : MPEG-4

Format profile : Base Media

Codec ID : isom (isom/iso2/avc1/mp41)

File size : 1.47 GiB

Duration : 1 h 49 min

Overall bit rate mode : Variable

Overall bit rate : 1 924 kb/s

Performer : Will Gluck

Genre : Comedy

Video

ID : 1

Format : AVC

Format/Info : Advanced Video Codec

Format profile : [email protected]
Format settings : CABAC / 1 Ref Frames

Format settings, CABAC : Yes

Format settings, Reference frames : 1 frame

Codec ID : avc1

Codec ID/Info : Advanced Video Coding

Duration : 1 h 49 min

Bit rate mode : Variable

Bit rate : 1 537 kb/s

Maximum bit rate : 4 500 kb/s

Width : 1 920 pixels

Height : 802 pixels

Display aspect ratio : 2.40:1

Frame rate mode : Constant

Frame rate : 23.976 (23976/1000) FPS

Color space : YUV

Chroma subsampling : 4:2:0

Bit depth : 8 bits

Scan type : Progressive

Bits/(Pixel*Frame) : 0.042

Stream size : 1.17 GiB (80%)

Language : English

Menus : 3

Codec configuration box : avcC

Audio

ID : 2

Format : AC-3

Format/Info : Audio Coding 3

Commercial name : Dolby Digital

Codec ID : ac-3

Duration : 1 h 49 min

Bit rate mode : Constant

Bit rate : 384 kb/s

Channel(s) : 6 channels

Channel layout : L R C LFE Ls Rs

Sampling rate : 48.0 kHz

Frame rate : 31.250 FPS (1536 SPF)

Compression mode : Lossy

Stream size : 301 MiB (20%)

Language : English

Service kind : Complete Main

********************************************************

Friends.With.Benefits.2011.10Download Torrent Magnet

#FriendsWithBenefits201110