Frankenstein Created Woman 19 Full Torrent Magnet Download

Download Torrent Frankenstein Created Woman 19 Movie Full in HD Result. Movie Frankenstein Created Woman 19 Torrent Download full. Movie Frankenstein Created Woman 19 torrent Magnet Download Full. Frankenstein Created Woman 19 Full Movie Torrent Download And Magnet Download For your PC And Mobiles. Latest Movie Frankenstein Created Woman 19 Download Link In Bottom.

Torrent And Magnet Links Below

Frankenstein Created Woman 1967 1080p BLURAY REMUX AVC DTS-HD M.A 4.1 – iCMAL [TGx]

Certification

Australia:M Finland:K-18 (2001, self applied) Finland:(Banned) (1967) Ireland:15 (DVD) Netherlands:16 Norway:16 Sweden:15 United Kingdom:12 (2006, video rating) United Kingdom:15 (1999, video rating) United Kingdom:X (1967, original rating) United States:Unrated United States:TV-14 West Germany:16 (nf)

After being reanimated, Baron Frankenstein transfers the soul of an executed young man into the body of his lover, prompting her to kill the men who wronged them.

Director: Terence Fisher

Writer: Anthony Hinds
Stars: Peter Cushing, Susan Denberg, Thorley Walters

Storyline

A dead and frozen Baron Frankenstein is re-animated by his colleague Dr. Hertz proving to him that the soul does not leave the body on the instant of death. His lab assistant, young Hans, is found guilty of murdering the local pub owner with whom he had an argument where he foolishly swore to kill the man and Frankenstein acquires his body immediately after the execution. Hans had been quite friendly with the dead man’s daughter Christina who returns just in time to see him guillotined. Distraught, she commits suicide and is brought back to life by the good Doctor but with Hans’ brain replacing her own. As memories return to her – Hans’ memories in fact – she sets out to pursue and kill those responsible for having sent him to his death.

Format : Matroska

Format version : Version 4

File size : 21.5 GiB

Duration : 1 h 31 min

Overall bit rate mode : Variable

Overall bit rate : 33.5 Mb/s

Movie name : Frankenstein Created Woman 1967 1080p BLURAY REMUX AVC DTS-HD M.A 4.1 – iCMAL [TGx]
Encoded date : UTC 2021-02-04 08:41:37

Writing application : mkvmerge v10.0.0 (‘To Drown In You’) 64bit

Writing library : libebml v1.3.4 + libmatroska v1.4.5

Video

ID : 1

Format : AVC

Format/Info : Advanced Video Codec

Format profile : [email protected]
Format settings : CABAC / 4 Ref Frames

Format settings, CABAC : Yes

Format settings, Reference frames : 4 frames

Codec ID : V_MPEG4/ISO/AVC

Duration : 1 h 31 min

Bit rate mode : Variable

Bit rate : 32.0 Mb/s

Width : 1 920 pixels

Height : 1 080 pixels

Display aspect ratio : 16:9

Frame rate mode : Constant

Frame rate : 24.000 FPS

Standard : NTSC

Color space : YUV

Chroma subsampling : 4:2:0

Bit depth : 8 bits

Scan type : Progressive

Bits/(Pixel*Frame) : 0.643

Stream size : 20.5 GiB (95%)

Title : REMUX By_iCMAL RELEASE GROUP 2014Ì©

Default : Yes

Forced : No

Color range : Full

Color primaries : BT.709

Transfer characteristics : BT.709

Matrix coefficients : BT.709

Audio

ID : 2

Format : DTS XLL

Format/Info : Digital Theater Systems

Commercial name : DTS-HD Master Audio

Codec ID : A_DTS

Duration : 1 h 31 min

Bit rate mode : Variable

Bit rate : 1 566 kb/s

Channel(s) : 2 channels

Channel layout : L R

Sampling rate : 48.0 kHz

Frame rate : 93.750 FPS (512 SPF)

Bit depth : 16 bits

Compression mode : Lossless

Stream size : 1.00 GiB (5%)

Title : REMUX By_iCMAL RELEASE GROUP 2014Ì©

Language : English

Default : Yes

Forced : No

Frankenstein Created Woman 19Download Torrent Magnet

#Frankenstein #Created #Woman