Formula1 2021 – Round 02 – Im Full Torrent Magnet Download

Download Torrent Formula1 2021 – Round 02 – Im Movie Full in HD Result. Movie Formula1 2021 – Round 02 – Im Torrent Download full. Movie Formula1 2021 – Round 02 – Im torrent Magnet Download Full. Formula1 2021 – Round 02 – Im Full Movie Torrent Download And Magnet Download For your PC And Mobiles. Latest Movie Formula1 2021 – Round 02 – Im Download Link In Bottom.

Torrent And Magnet Links Below

Formula1 2021 – Round 02 – ImolaGP – Safety Car High Speed Test (1080p F1TV HEVC AAC x265 Natural Sounds-deef)

*note: check .txt file in torrent if you are struggling to play HEVC files on your device.

General

Unique ID : 57695028096865064515880747395854418778 (0x2B67A88175BCFC910335261179ECC35A)

Complete name : Formula1 2021 – Safety Car High Speed Test (1080p F1TV HEVC AAC x265 English-deef)1. Safety Car High Speed Test (1063mb 1920×1080 2208kbps x265 deef).mkv

Format : Matroska

Format version : Version 4

File size : 1.04 GiB

Duration : 1 h 5 min

Overall bit rate : 2 262 kb/s

Encoded date : UTC 2021-04-19 14:03:34

Writing application : mkvmerge v55.0.0 (‘Waiting For Space’) 64-bit

Writing library : libebml v1.4.2 + libmatroska v1.6.4 / Lavf58.29.100

Video

ID : 1

Format : HEVC

Format/Info : High Efficiency Video Coding

Format profile : [email protected]@Main

Codec ID : V_MPEGH/ISO/HEVC

Duration : 1 h 5 min

Bit rate : 2 101 kb/s

Width : 1 920 pixels

Height : 1 080 pixels

Display aspect ratio : 16:9

Frame rate mode : Constant

Frame rate : 25.000 FPS

Color space : YUV

Chroma subsampling : 4:2:0

Bit depth : 8 bits

Bits/(Pixel*Frame) : 0.041

Stream size : 987 MiB (93%)

Default : Yes

Forced : No

Color range : Limited

Color primaries : BT.709

Transfer characteristics : BT.709

Matrix coefficients : BT.709

Audio

ID : 2

Format : AAC LC

Format/Info : Advanced Audio Codec Low Complexity

Codec ID : A_AAC-2

Duration : 1 h 5 min

Bit rate : 159 kb/s

Channel(s) : 2 channels

Channel layout : L R

Sampling rate : 44.1 kHz

Frame rate : 43.066 FPS (1024 SPF)

Compression mode : Lossy

Delay relative to video : -12 ms

Stream size : 74.5 MiB (7%)

Title : Stereo

Default : Yes

Forced : No

If you like my uploads, feel free to donate crypto to help with seedbox costs. Any donation is greatly appreciated.

BTC – 1GfSamp573numJvoBbcCGNK1tACKs7t2U4

ETH – 0xb4529a2e9447c0afd48c439068e1ff37e8f54400

XRP – 0xb4529a2e9447c0afd48c439068e1ff37e8f54400

DASH – XuVe4aDYFrpXqfRFX77LNVQtVRjUHpnUfp

Formula1 2021 – Round 02 – ImDownload Torrent Magnet

#Formula1