Forces speciales 2011 Bonus B Full Torrent Magnet Download

Download Torrent Forces speciales 2011 Bonus B Movie Full in HD Result. Movie Forces speciales 2011 Bonus B Torrent Download full. Movie Forces speciales 2011 Bonus B torrent Magnet Download Full. Forces speciales 2011 Bonus B Full Movie Torrent Download And Magnet Download For your PC And Mobiles. Latest Movie Forces speciales 2011 Bonus B Download Link In Bottom.

Torrent And Magnet Links Below

______________________________________________________________________________________________________________
Special Forces 2011
Bluray · 1080p x265 10bit · DD+ 5.1 VFF
More Bonus
¯¯¯¯¯¯¯¯¯¯¯¯¯¯¯¯¯¯¯¯¯¯¯¯¯¯¯¯¯¯¯¯¯¯¯¯¯¯¯¯¯¯¯¯¯¯¯¯¯¯¯¯¯¯¯¯¯¯¯¯¯¯¯¯¯¯¯¯¯¯¯¯¯¯¯¯¯¯¯¯

Year : 2011

Country : French

Original, French and Quebec Title : Forces spéciales

English Title : Special Forces

Director : Stéphane Rybojad
Music from : Xavier Berthelot

Actors : Diane Kruger, Djimon Hounsou, Benoît Magimel, Denis Ménochet, Raphaël Personnaz, Alain Figlarz, Marius, Mehdi Nebbou, Raz Degan

Tchéky Karyo

Genre : War, Action, Adventure, Drama

Certificate : All public
Budget : 9 900 000 € · Recipe : 1 675 343 $ · ratio : 19 %

Link : Allociné 3,3 /5 · IMDB 6,4 /10 · TMDB 67 % · SensCritique 5,5 /10 · Wiki · Bande Annonce

French Plot
Afghanistan . Elsa Casanova , grand reporter, est prise en otage par les talibans . Devant l’imminence de son exécution, une unité des Forces Spéciales est envoyée pour la libérer. Dans des paysages à la fois hostiles et magnifiques, une poursuite impitoyable s’engage alors entre ses ex-ravisseurs qui n’entendent pas laisser leur proie leur échapper et ce groupe de soldats qui, au péril de leur vie, n’ont qu’un objectif : la ramener vivante. Entre cette femme de caractère et ces hommes de devoir , contraints d’affronter ensemble les pires dangers, vont se nouer des liens affectifs, violents, intimes…

Bonus
Bluray Opening VF 1 mn – 43,90 Mib – 1920×1080 HEVC 10Bits – MUSIQUE – c0a7e557
Bluray Opening EN 1 mn – 43,80 Mib – 1920×1080 HEVC 10Bits – MUSIQUE – 39b0bf90
Making of 1 h27 mn – 2,69 Gib – 1920×1080 HEVC 10Bits – VFSTEN – 17f9fa5b
Marius 3 mn – 82,20 Mib – 1920×1080 HEVC 10Bits – VFSTEN – cacf9d1f
7 Deleted Scenes 5 mn – 97,30 Mib – 1920×1080 HEVC 10Bits – VFSTEN – 21884ddf
Teaser 1 mn – 40,20 Mib – 1920×1080 HEVC 10Bits – VFF – 513d8ce5
StudioCanal 20 s – 5,47 Mib – 1920×1080 HEVC 10Bits – MUSIQUE – a588ce9a
7 bonus, total 3,00 Gib 1 h40 mn


If you enjoy and wish to support, please stay in seeding

Technical Details
¯¯¯¯¯¯¯¯¯¯¯¯¯¯¯¯¯¯¯¯¯¯¯¯¯¯¯¯¯¯¯¯¯¯¯¯¯¯¯¯¯¯¯¯¯¯¯¯¯¯¯¯¯¯¯¯¯¯¯¯¯¯¯¯¯¯¯¯¯¯¯¯¯¯¯¯¯¯¯¯¯¯¯¯¯¯¯¯¯¯¯¯¯¯¯¯¯¯¯¯
Media
Matroska 3,69 Gio 1 h48 mn 4863 Kbps, Total 6,69 Gio 3 h28 mn
Video
HEVC/H265 1920 x806 @24.000 [email protected]@Main 10 bits 4201 Kbps VerySlow qp26,90
Audio
True French (OV) 5.1 EAC3 448 Kbps 48KHz 16bits

True French Descriptive Audio 2.0 EAC3 192 Kbps 48KHz 16bits

Subtitles
True French forced Embedded

True French forced SRT
True French full SRT
True French forced PGS
True French sourds&malentendants PGS
English full PGS
Chapters
International

Screenshot

Origin
Bluray : AVC 1080p 24576 Kbps, VFF 5.1 DTS-HDMA 1967 Kbps, VFF AD 2.0 DTS-HDMA 1607 Kbps [WiHD]

NFO
¯¯¯¯¯¯¯¯¯¯¯¯¯¯¯¯¯¯¯¯¯¯¯¯¯¯¯¯¯¯¯¯¯¯¯¯¯¯¯¯¯¯¯¯¯¯¯¯¯¯¯¯¯¯¯¯¯¯¯¯¯¯¯¯¯¯¯¯¯¯¯¯¯¯¯¯¯¯¯¯¯¯¯¯¯¯¯¯¯¯¯¯¯¯¯¯¯¯¯¯

General
Complete name : Forces speciales 2011 BR EAC3 VFF 1080p x265 10Bits T0M.mkv

Format : Matroska
Format version : Version 4

File size : 3.69 GiB
Duration : 1 h 48 min

Overall bit rate : 4 863 kb/s

Movie name : Forces spéciales 2011 de Stéphane Rybojad avec Diane Kruger, Djimon Hounsou, Benoît Magimel, Denis Ménochet, Raphaël Personnaz, Alain Figlarz, Marius, Mehdi Nebbou, Raz Degan, Tchéky Karyo. (allocine=181881,imdb=tt1656192,tmdb=74513) T0M
Encoded date : UTC 2021-06-04 21:51:44

Writing application : mkvmerge v51.0.0 (‘I Wish’) 64-bit

Writing library : libebml v1.4.0 + libmatroska v1.6.2

Cover : Yes

Attachments : Cover.jpg / Box.jpg

Video
ID : 1

Format : HEVC
Format/Info : High Efficiency Video Coding

Format profile : Main [email protected]@Main

Codec ID : V_MPEGH/ISO/HEVC

Duration : 1 h 48 min

Bit rate : 4 201 kb/s

Width : 1 920 pixels

Height : 806 pixels

Display aspect ratio : 2.40:1

Frame rate mode : Constant

Frame rate : 24.000 FPS

Color space : YUV

Chroma subsampling : 4:2:0

Bit depth : 10 bits

Bits/(Pixel*Frame) : 0.113

Stream size : 3.19 GiB (86%)

Title : Video HEVC 1920×806 (2.40:1) @24.000 x265 [email protected]@Main 10bits 4200kbps 2pass veryslow 3966mn qp26,90
Writing library : x265 3.2.1+1-b5c86a64bbbe:[Windows][GCC 9.2.0][64 bit] 10bit

Encoding settings : cpuid=1111039 / frame-threads=3 / numa-pools=8 / wpp / no-pmode / no-pme / no-psnr / no-ssim / log-level=2 / input-csp=1 / input-res=1920×806 / interlace=0 / total-frames=0 / level-idc=0 / high-tier=1 / uhd-bd=0 / ref=5 / no-allow-non-conformance / no-repeat-headers / annexb / no-aud / no-hrd / info / hash=0 / no-temporal-layers / open-gop / min-keyint=24 / keyint=240 / gop-lookahead=0 / bframes=8 / b-adapt=2 / b-pyramid / bframe-bias=0 / rc-lookahead=120 / lookahead-slices=0 / scenecut=40 / radl=0 / no-splice / no-intra-refresh / ctu=64 / min-cu-size=8 / rect / amp / max-tu-size=32 / tu-inter-depth=3 / tu-intra-depth=3 / limit-tu=0 / rdoq-level=2 / dynamic-rd=0.00 / no-ssim-rd / signhide / no-tskip / nr-intra=0 / nr-inter=0 / no-constrained-intra / strong-intra-smoothing / max-merge=5 / limit-refs=0 / no-limit-modes / me=3 / subme=4 / merange=57 / temporal-mvp / no-hme / weightp / weightb / no-analyze-src-pics / deblock=0:0 / sao / no-sao-non-deblock / rd=6 / selective-sao=4 / no-early-skip / rskip / no-fast-intra / no-tskip-fast / no-cu-lossless / b-intra / no-splitrd-skip / rdpenalty=0 / psy-rd=2.00 / psy-rdoq=1.00 / no-rd-refine / no-lossless / cbqpoffs=0 / crqpoffs=0 / rc=abr / bitrate=4200 / qcomp=0.60 / qpstep=4 / stats-write=0 / stats-Read=2 / cplxblur=20.0 / qblur=0.5 / ipratio=1.40 / pbratio=1.30 / aq-mode=2 / aq-strength=1.00 / cutree / zone-count=0 / no-strict-cbr / qg-size=32 / no-rc-grain / qpmax=69 / qpmin=0 / no-const-vbv / sar=1 / overscan=0 / videoformat=5 / range=0 / colorprim=1 / transfer=1 / colormatrix=1 / chromaloc=0 / display-window=0 / cll=0,0 / min-luma=0 / max-luma=1023 / log2-max-poc-lsb=8 / vui-timing-info / vui-hrd-info / slices=1 / no-opt-qp-pps / no-opt-ref-list-length-pps / no-multi-pass-opt-rps / scenecut-bias=0.05 / no-opt-cu-delta-qp / no-aq-motion / no-hdr / no-hdr-opt / no-dhdr10-opt / no-idr-recovery-sei / analysis-reuse-level=5 / scale-factor=0 / refine-intra=0 / refine-inter=0 / refine-mv=1 / refine-ctu-distortion=0 / no-limit-sao / ctu-info=0 / no-lowpass-dct / refine-analysis-type=0 / copy-pic=1 / max-ausize-factor=1.0 / no-dynamic-refine / no-single-sei / no-hevc-aq / no-svt / no-field / qp-adaptation-range=1.00

Default : Yes

Forced : No

Color range : Limited

Color primaries : BT.709

Transfer characteristics : BT.709

Matrix coefficients : BT.709

Audio #1
ID : 2

Format : E-AC-3
Format/Info : Enhanced AC-3

Commercial name : Dolby Digital Plus

Codec ID : A_EAC3

Duration : 1 h 48 min

Bit rate mode : Constant

Bit rate : 448 kb/s

Channel(s) : 6 channels

Channel layout : L R C LFE Ls Rs

Sampling rate : 48.0 kHz

Frame rate : 31.250 FPS (1536 SPF)

Compression mode : Lossy

Stream size : 349 MiB (9%)

Title : Français 5.1 EAC3 448kbps 48khz 16bits
Language : French
Service kind : Complete Main

Default : Yes

Forced : No

Audio #2
ID : 3

Format : E-AC-3
Format/Info : Enhanced AC-3

Commercial name : Dolby Digital Plus

Codec ID : A_EAC3

Duration : 1 h 48 min

Bit rate mode : Constant

Bit rate : 192 kb/s

Channel(s) : 2 channels

Channel layout : L R

Sampling rate : 48.0 kHz

Frame rate : 31.250 FPS (1536 SPF)

Compression mode : Lossy

Stream size : 149 MiB (4%)

Title : Français Audiodescription 2.0 EAC3 192kbps 48khz 16bits
Language : French
Service kind : Complete Main

Default : No

Forced : No

Text #1
ID : 4

Format : UTF-8
Codec ID : S_TEXT/UTF8

Codec ID/Info : UTF-8 Plain Text

Duration : 1 h 48 min

Bit rate : 8 b/s

Count of elements : 228

Stream size : 6.58 KiB (0%)

Title : Français forcé (Passages)
Language : French
Default : Yes

Forced : Yes

Text #2
ID : 5

Format : UTF-8
Codec ID : S_TEXT/UTF8

Codec ID/Info : UTF-8 Plain Text

Duration : 1 h 48 min

Bit rate : 26 b/s

Count of elements : 870

Stream size : 20.8 KiB (0%)

Title : Français complet (Tous le film)
Language : French
Default : No

Forced : No

Text #3
ID : 6

Format : PGS
Muxing mode : zlib

Codec ID : S_HDMV/PGS

Codec ID/Info : Picture based subtitle format used on BDs/HD-DVDs

Duration : 1 h 23 min

Bit rate : 4 821 b/s

Count of elements : 430

Stream size : 2.89 MiB (0%)

Title : Français forcé (Passages) PGS
Language : French
Default : No

Forced : Yes

Text #4
ID : 7

Format : PGS
Muxing mode : zlib

Codec ID : S_HDMV/PGS

Codec ID/Info : Picture based subtitle format used on BDs/HD-DVDs

Duration : 1 h 48 min

Bit rate : 15.6 kb/s

Count of elements : 2828

Stream size : 12.1 MiB (0%)

Title : Français sourds&malentendants PGS
Language : French
Default : No

Forced : No

Text #5
ID : 8

Format : PGS
Muxing mode : zlib

Codec ID : S_HDMV/PGS

Codec ID/Info : Picture based subtitle format used on BDs/HD-DVDs

Duration : 1 h 47 min

Bit rate : 8 646 b/s

Count of elements : 1200

Stream size : 6.67 MiB (0%)

Title : English full PGS
Language : English
Default : No

Forced : No

Menu
00:00:00.000 : :01 – 00:00:00

00:09:32.208 : :02 – 00:09:32

00:18:48.625 : :03 – 00:18:48

00:30:12.041 : :04 – 00:30:12

00:40:08.958 : :05 – 00:40:08

00:47:09.291 : :06 – 00:47:09

00:57:27.625 : :07 – 00:57:27

01:04:56.041 : :08 – 01:04:56

01:14:18.750 : :09 – 01:14:18

01:24:35.875 : :10 – 01:24:35

01:33:37.875 : :11 – 01:33:37

01:45:19.875 : :12 – 01:45:19

Forces speciales 2011 Bonus BDownload Torrent Magnet

#Forces #speciales #Bonus